Loading...
Done
Home > Music
Posted By : SteveJobs | Date : 19 Mar 2022 11:44:55 | Comments : 3 |

Roedelius & Morgan Fisher - Neverless (2005)
XLD Rip | Flac (Tracks) Cue, Log, m3u, md5, st5, ffp | complete Artwork 300 dpi | 363 MB
Electronic, Ambient | 2005 | Klanggalerie | gg96

What could be a better title for our follow-up to Roedelius' "Evermore" than "Neverless"? Two avantgarde heroes have teamed up for a unique collaboration that was started by Hans-Joachim Roedelius in Austria and then processed by Morgan Fisher in Japan. Ambient soundscapes with an Asian touch, meditative, repetitive and very seductive.

How about a collaboration between a former member of Cluster, and the keyboard player for Mott the Hoople? Strange you might think, but Achim's patented cerebral synthetic tapestries are complimented to perfection here by Fisher's delicate melodies and spatial treatments.
There are layers of wafting classical overtones, spatial tone colors, and layers of shape shifting undulations, all of which melt together forming a magical soundscape of dynamic, warmly meditative electronics, which create a series of vivid, aural movies for the mind & body.
(Eurock, November 2005)

CD album in a limited edition of 500 copies.



Tracklisting:
1 Always 8:03
2 Whatelse 7:10
3 However 7:52
4 Inparticular 19:47
5 Wherefrom 15:14



XLD Log
X Lossless Decoder version 20100302 (116.6)

XLD extraction logfile from 2022-03-17 07:16:18 +0100

Roedelius & Morgan Fisher / Neverless

Used drive : PIONEER DVD-RW DVR-K06A (revision Q631)

Use cdparanoia mode : YES (CDParanoia III 10.2 engine)
Disable audio cache : OK for the drive with cache less than 2750KB
Make use of C2 pointers : NO
Read offset correction : 48
Max retry count : 100

TOC of the extracted CD
Track | Start | Length | Start sector | End sector
---------------------------------------------------------
1 | 00:00:00 | 08:07:04 | 0 | 36528
2 | 08:07:04 | 07:14:00 | 36529 | 69078
3 | 15:21:04 | 07:56:29 | 69079 | 104807
4 | 23:17:33 | 19:50:39 | 104808 | 194096
5 | 43:07:72 | 15:14:57 | 194097 | 262703


All Tracks
Album gain : -5.26 dB
Peak : 0.999969

Track 01
Filename : /Users/Desktop/Roedelius & Morgan Fisher - Neverless (2005) [FLAC]/01 - Always.flac

Pre-gap length : 00:02:00

Track gain : -4.62 dB
Peak : 0.989960
CRC32 hash (test run) : 9C9F2D1C
CRC32 hash : 9C9F2D1C
CRC32 hash (skip zero) : 33E2DDE2
AccurateRip signature : 335E5A49
->Accurately ripped! (confidence 1)
Statistics
Read error : 0
Skipped (treated as error) : 0
Edge jitter error (maybe fixed) : 0
Atom jitter error (maybe fixed) : 0
Drift error (maybe fixed) : 0
Dropped bytes error (maybe fixed) : 0
Duplicated bytes error (maybe fixed) : 0
Inconsistency in error sectors : 0

Track 02
Filename : /Users/Desktop/Roedelius & Morgan Fisher - Neverless (2005) [FLAC]/02 - Whatelse.flac

Pre-gap length : 00:04:00

Track gain : -4.70 dB
Peak : 0.999969
CRC32 hash (test run) : 26A793E4
CRC32 hash : 26A793E4
CRC32 hash (skip zero) : 6BD3ECCB
AccurateRip signature : 1B9FED41
->Accurately ripped! (confidence 1)
Statistics
Read error : 0
Skipped (treated as error) : 0
Edge jitter error (maybe fixed) : 0
Atom jitter error (maybe fixed) : 0
Drift error (maybe fixed) : 0
Dropped bytes error (maybe fixed) : 0
Duplicated bytes error (maybe fixed) : 0
Inconsistency in error sectors : 0

Track 03
Filename : /Users/Desktop/Roedelius & Morgan Fisher - Neverless (2005) [FLAC]/03 - However.flac

Pre-gap length : 00:04:00

Track gain : -6.63 dB
Peak : 0.989960
CRC32 hash (test run) : 4B01B34C
CRC32 hash : 4B01B34C
CRC32 hash (skip zero) : E8B35C1D
AccurateRip signature : 346B6A45
->Accurately ripped! (confidence 1)
Statistics
Read error : 0
Skipped (treated as error) : 0
Edge jitter error (maybe fixed) : 0
Atom jitter error (maybe fixed) : 0
Drift error (maybe fixed) : 0
Dropped bytes error (maybe fixed) : 0
Duplicated bytes error (maybe fixed) : 0
Inconsistency in error sectors : 0

Track 04
Filename : /Users/Desktop/Roedelius & Morgan Fisher - Neverless (2005) [FLAC]/04 - Inparticular.flac

Pre-gap length : 00:04:00

Track gain : -5.04 dB
Peak : 0.989960
CRC32 hash (test run) : E4B86E56
CRC32 hash : E4B86E56
CRC32 hash (skip zero) : CBF21585
AccurateRip signature : 6B779CF4
->Accurately ripped! (confidence 1)
Statistics
Read error : 0
Skipped (treated as error) : 0
Edge jitter error (maybe fixed) : 0
Atom jitter error (maybe fixed) : 0
Drift error (maybe fixed) : 0
Dropped bytes error (maybe fixed) : 0
Duplicated bytes error (maybe fixed) : 0
Inconsistency in error sectors : 0

Track 05
Filename : /Users/Desktop/Roedelius & Morgan Fisher - Neverless (2005) [FLAC]/05 - Wherefrom.flac

Pre-gap length : 00:04:00

Track gain : -5.39 dB
Peak : 0.989960
CRC32 hash (test run) : 3EF349B3
CRC32 hash : 3EF349B3
CRC32 hash (skip zero) : CC4362F8
AccurateRip signature : 2E66E873
->Accurately ripped! (confidence 1)
Statistics
Read error : 0
Skipped (treated as error) : 0
Edge jitter error (maybe fixed) : 0
Atom jitter error (maybe fixed) : 0
Drift error (maybe fixed) : 0
Dropped bytes error (maybe fixed) : 0
Duplicated bytes error (maybe fixed) : 0
Inconsistency in error sectors : 0

No errors occurred

End of status report





ADVERTISING » High Speed Download « ADVERTISING




Posted By: DarkMagus Date: 19 Mar 2022 12:04:47
Another rare gem, thanks Mr.Jobs...makes me wonder where you get all these rare discs...
Posted By: lkrushel Date: 19 Mar 2022 15:26:46
Thank you very much for another great find!
Posted By: john43 Date: 19 Mar 2022 19:18:45
thank you very much!!!!
Recent searches: