Loading...
Done
Home > Music
Nat King Cole - Re: Generations (2009)
Posted By : PanPipes | Date : 07 Mar 2022 02:51:51 | Comments : 3

Nat King Cole - Re: Generations (2009)
FLAC (IMAGE+CUE+LOG) | No Scans | February 24, 2022 | 46:30 min | 324 mb (+5% recov.)
MP3 | 320kbps | 107 mb (+5% recov.)
Genre: Jazz, Soul-Jazz, Reggae, Swing, Jazzdance, Hip Hop

In an altogether modern and collaborative approach, many of the world's most pioneering musicians, producers and DJs have joined together to bring each of their distinct styles to 13 of Nat King Cole's outstanding recordings for RE:GENERATIONS.

Executive Produced by Carole Cole and Michaelangelo L'Acqua, the album contains the manifold talents of Cee-Lo, The Roots, will.i.am with Natalie Cole, Cut Chemist, Just Blaze, Nas with Salaam Remi, Souldiggaz with Izza Kizza, Michaelangelo L'Acqua with Bebel Gilberto, Stephen and Damian Marley, Bitter:Sweet, Brazilian Girls, Amp Fiddler and TV On The Radio.

RE:GENERATIONS aims to construct a tuneful bridge between generations, cultures and races. Evocative of a sleek and stylish metrolounge where music and the visual arts converge, RE:GENERATIONS honors Nat King Cole's continued cultural influence around the planet, 90 years after his birth.


Tracklist:

01. Nat King Cole - Lush Life (Produced by Cee-Lo Green) (3:15)
02. Nat King Cole feat. Natalie Cole - Straighten Up and Fly Right (Produced by William) (2:15)
03. Nat King Cole - Day in Day out (Produced by Cut-Chemist) (2:43)
04. Nat King Cole feat. Bebel Gilberto - Brazilian Love Song (4:47)
05. Nat King Cole feat. Nas - The Game of Love (Produced by Salaam Remi) (2:27)
06. Nat King Cole feat. the Roots - Walkin My Baby Back Home (4:14)
07. Nat King Cole feat. Izza Kizza - Hit that Jive Jack (Produced by Souldiggaz) (3:42)
08. Nat King Cole feat. Damian Marley - Calypso Blues (4:31)
09. Nat King Cole - More and More of Your Amor (Produced by Bittersweet) (3:18)
10. Nat King Cole - Ell Choolo (Produced by Brazilian Girls) (4:55)
11. Nat King Cole - Pick Up (Produced by Jus Blaze) (3:54)
12. Nat King Cole - Anytime Anyday Anywhere (Produced by Amp Fiddler) (3:08)
13. Nat King Cole feat. TV on the radio - Nature Boy (3:11)

EAC LOG
Exact Audio Copy V0.99 prebeta 5 from 4. May 2009

EAC extraction logfile from 15. September 2009, 4:11

Nat 'King' Cole / Re:Generations

Used drive : HL-DT-STDVDRAM GSA-H10N Adapter: 1 ID: 0

Read mode : Secure
Utilize accurate stream : Yes
Defeat audio cache : Yes
Make use of C2 pointers : No

Read offset correction : 667
Overread into Lead-In and Lead-Out : No
Fill up missing offset samples with silence : Yes
Delete leading and trailing silent blocks : No
Null samples used in CRC calculations : Yes
Used interface : Native Win32 interface for Win NT & 2000

Used output format : Internal WAV Routines
Sample format : 44.100 Hz; 16 Bit; Stereo


TOC of the extracted CD

Track | Start | Length | Start sector | End sector
---------------------------------------------------------
1 | 0:00.00 | 3:16.16 | 0 | 14715
2 | 3:16.16 | 2:16.16 | 14716 | 24931
3 | 5:32.32 | 2:44.02 | 24932 | 37233
4 | 8:16.34 | 4:47.71 | 37234 | 58829
5 | 13:04.30 | 2:27.44 | 58830 | 69898
6 | 15:31.74 | 4:14.74 | 69899 | 89022
7 | 19:46.73 | 3:42.43 | 89023 | 105715
8 | 23:29.41 | 4:31.40 | 105716 | 126080
9 | 28:01.06 | 3:18.43 | 126081 | 140973
10 | 31:19.49 | 4:55.38 | 140974 | 163136
11 | 36:15.12 | 3:54.61 | 163137 | 180747
12 | 40:09.73 | 3:08.47 | 180748 | 194894
13 | 43:18.45 | 3:12.13 | 194895 | 209307


Range status and errors

Selected range

Filename G:\Nat King Cole - Re Generations\Nat King Cole - Re Generations.wav

Peak level 100.0 %
Range quality 100.0 %
Test CRC AEE03744
Copy CRC AEE03744
Copy OK

No errors occurred


AccurateRip summary

Track 1 accurately ripped (confidence 1) [3FAB1FC5]
Track 2 accurately ripped (confidence 1) [D6DB8896]
Track 3 accurately ripped (confidence 1) [03339017]
Track 4 accurately ripped (confidence 1) [03D0500F]
Track 5 accurately ripped (confidence 1) [62778787]
Track 6 accurately ripped (confidence 1) [EDB20509]
Track 7 accurately ripped (confidence 1) [8C68A72D]
Track 8 accurately ripped (confidence 1) [A1754719]
Track 9 accurately ripped (confidence 1) [9A22A0F2]
Track 10 accurately ripped (confidence 1) [C8ACB0E6]
Track 11 accurately ripped (confidence 1) [3A48ABAC]
Track 12 accurately ripped (confidence 1) [1A6DBE4A]
Track 13 accurately ripped (confidence 1) [1C4F2DA8]

All tracks accurately ripped

End of status report


FLAC

Hotfile.com:
part1
part2
part3
part4

Rapidshare.com:
part1
part2
part3
part4


MP3 320kbps

Hotfile.com
part1
part2

Rapidshare.com:
part1
part2


SCANS (30 mb)

Hotfile.com

Rapidshare.com
ADVERTISING » Download fast « ADVERTISING
Posted By: pesaulius Date: 07 Mar 2022 05:04:10
NICE THANK YOU OK
Posted By: stfine Date: 07 Mar 2022 11:16:05
Hi, friend
Did you notice that I already posted MP3 320kbps version?

http://avaxhome.ws/music/nat_king_cole___various_artists_-_re__generations__2009.html
Posted By: PanPipes Date: 07 Mar 2022 13:59:07
I posted FLAC version, and added mp3 version to flac. Is this forbidden?
Recent searches:
DONATE AVAXHOME:

Donate please!