Loading...
Done
Home > Music
Modena City Ramblers - ¡Viva la vida, muera la muerte! (2004)
Posted By : fastposter | Date : 20 Feb 2022 23:41:40 | Comments : 0
Modena City Ramblers - ¡Viva la vida, muera la muerte! (2004)

Modena City Ramblers - ¡Viva la vida, muera la muerte! (2004)
Pop/Folk | Italian | 1CD | FLAC | EAC | CUE + LOG
Mercury Italy - UPC 602498164600 | Cover

This release was produced by Max Casacci (from Subsonica). The title came from the final sentence of the Zapatistas commanders in their introductions. The album follows the path of Radio Rebelde, but is also linked with the old sonorities and musical structures (the ballad). The Ramblers’ music by now had an original personality with hundreds of influences (folk, punk, rock steady, reggae-dub, Latin, African, Balkan and so on…) mixed in a unique blend. Within a few days ¡Viva la Vida, Muera la Muerte! entered the TOP TEN of the Italian album chart!


Tracklist

01. Modena City Ramblers - Viva La Vida
02. Modena City Ramblers - El Presidente
03. Modena City Ramblers - Ramblers Blues
04. Modena City Ramblers - I Cento Passi
05. Modena City Ramblers - Mira Niño
06. Modena City Ramblers - Ebano
07. Modena City Ramblers - Stella Sul Mare
08. Modena City Ramblers - Lontano
09. Modena City Ramblers - Al Fiómm
10. Modena City Ramblers - Il Testamento Di Tito
11. Modena City Ramblers - Altri Mondi
12. Modena City Ramblers - La Fòla Ed La Sira

Total time: 00:55:16

Biography

The Modena City Ramblers were formed in 1991 by a group of friends that wanted to play traditional Irish music. The first to join were Alberto Morselli, Giovanni Rubbiani and Alberto Cottica (still in Lontano da dove), Chris Dennis (formerly a member of Nomadi), Filippo Chieli, Franco D'Aniello and Luciano Gaetani from 'Abazia dei folli. On Saint Patrick's Day in 1991, during a concert in a pub in Modena, they chose the name Modena City Ramblers. The name was an homage to Dublin City Ramblers, an Irish band.

In 1992 they were joined by bassist Massimo Ghiacci (formerly in the band Plutonium 99). During the evening of 1 March they recorded their first demo. During a concert at a pub in Carpi, Stefano "Cisco" Bellotti sang The Wild Rover for the first time. At this time the Modena City Ramblers became an open company, and have remained so during throughout their history, with almost all members who have left the band returning sporadically to play with the group. Their most famous concert was performed as the opening act for the Pogues in Modena. Their repertoire has since expanded considerably, including traditional Italian songs as Bella ciao, Fischia il vento, and Contessa.

The singer of the group Cisco along with producer Kaba Cavazzuti who also became "a new member of the Modena City Ramblers after changes in the original line-up", released the album of the ‘brother band’ Casa del Vento, titled "900" which came out in February 2001.

Members

The band's lineup has changed many times since their formation. After the first album, singer Alberto Morselli left the band; in 1996 Francesco Moneti replaced Marco Michelini, and Giovanni Rubbiani and Alberto Cottica left the band in 2001. Singer Stefano "Cisco" Bellotti left the band in 2005 after fourteen years. The lineup in 2006 was:

- Davide "Dudu" Morandi: singer, bass, acoustic and electric guitar, banjo, glockenspiel, harmonica
- Elisabetta "Betty" Vezzani: singer, acoustic and electric guitar, tambourine, mandolin
- Massimo "Ice" Ghiacci: acoustic and electric bass, double bass, tea chest bass, sax, choirs, acoustic guitar
- Franco D'Aniello: flute, tin whistle, trumpet, sax, choirs, acoustic guitar, glockenspiel, percussion
- Francesco "Fry" Moneti: acoustic and electric guitar, acoustic, electric and indian violin, banjo, oud, mandolin, choirs, vox
- Roberto Zeno: drums, percussions, choirs, mandolin, acoustic guitar and piano
- Arcangelo "Kaba" Cavazzuti: drums, percussions, acoustic guitar, bass, charango, piano, trumpet, shaker, banjo, choirs, vox
- Luca "Gabibbo" Giacometti (died in 2007): bouzouki, mandolin, banjo, acoustic guitar, choirs, vox

Note: tags include lyrics

Log:
Exact Audio Copy V0.99 prebeta 5 from 4. May 2009

EAC extraction logfile from 20. February 2010, 11:00

Modena City Ramblers / IViva La Vida, Muera La Muerte!

Used drive : TEAC CD-W512EB Adapter: 5 ID: 0

Read mode : Secure
Utilize accurate stream : Yes
Defeat audio cache : No
Make use of C2 pointers : Yes

Read offset correction : 685
Overread into Lead-In and Lead-Out : No
Fill up missing offset samples with silence : Yes
Delete leading and trailing silent blocks : No
Null samples used in CRC calculations : No
Used interface : Native Win32 interface for Win NT & 2000
Gap handling : Not detected, thus appended to previous track

Used output format : User Defined Encoder
Selected bitrate : 768 kBit/s
Quality : High
Add ID3 tag : No
Command line compressor : C:\Program Files\Exact Audio Copy\FLAC\FLAC.EXE
Additional command line options : -8 -V -T "Artist=%a" -T "Title=%t" -T "Album=%g" -T "Date=%y" -T "Tacknumber=%n" -T "Genre=%m" %s -o %d


TOC of the extracted CD

Track | Start | Length | Start sector | End sector
---------------------------------------------------------
1 | 0:00.00 | 4:06.28 | 0 | 18477
2 | 4:06.28 | 5:03.56 | 18478 | 41258
3 | 9:10.09 | 4:15.49 | 41259 | 60432
4 | 13:25.58 | 4:23.46 | 60433 | 80203
5 | 17:49.29 | 4:22.27 | 80204 | 99880
6 | 22:11.56 | 4:59.52 | 99881 | 122357
7 | 27:11.33 | 4:20.00 | 122358 | 141857
8 | 31:31.33 | 4:22.60 | 141858 | 161567
9 | 35:54.18 | 3:03.66 | 161568 | 175358
10 | 38:58.09 | 6:55.49 | 175359 | 206532
11 | 45:53.58 | 4:54.53 | 206533 | 228635
12 | 50:48.36 | 4:25.65 | 228636 | 248575


Track 1

Filename D:\Ripped\01. Modena City Ramblers - Viva La Vida.wav

Peak level 99.9 %
Track quality 99.9 %
Copy CRC 8DFCB644
Cannot be verified as accurate (confidence 1) [C15F7C90], AccurateRip returned [64B95D03]
Copy OK

Track 2

Filename D:\Ripped\02. Modena City Ramblers - El Presidente.wav

Peak level 99.9 %
Track quality 99.9 %
Copy CRC 89A869A8
Cannot be verified as accurate (confidence 1) [DC2EC7D4], AccurateRip returned [24901AB0]
Copy OK

Track 3

Filename D:\Ripped\03. Modena City Ramblers - Ramblers Blues.wav

Peak level 99.9 %
Track quality 100.0 %
Copy CRC 09716D6B
Cannot be verified as accurate (confidence 1) [46E3A412], AccurateRip returned [D2339FF7]
Copy OK

Track 4

Filename D:\Ripped\04. Modena City Ramblers - I Cento Passi.wav

Peak level 99.9 %
Track quality 100.0 %
Copy CRC A01AC542
Cannot be verified as accurate (confidence 1) [209D89E0], AccurateRip returned [75EA1528]
Copy OK

Track 5

Filename D:\Ripped\05. Modena City Ramblers - Mira Niño.wav

Peak level 99.9 %
Track quality 100.0 %
Copy CRC 17E191B3
Cannot be verified as accurate (confidence 1) [53C02BF5], AccurateRip returned [C9994637]
Copy OK

Track 6

Filename D:\Ripped\06. Modena City Ramblers - Ebano.wav

Peak level 99.9 %
Track quality 100.0 %
Copy CRC 7437C3ED
Cannot be verified as accurate (confidence 1) [A0CEC324], AccurateRip returned [492CA5D6]
Copy OK

Track 7

Filename D:\Ripped\07. Modena City Ramblers - Stella Sul Mare.wav

Peak level 100.0 %
Track quality 100.0 %
Copy CRC 964960A4
Cannot be verified as accurate (confidence 1) [D5FF355F], AccurateRip returned [8B3053B5]
Copy OK

Track 8

Filename D:\Ripped\08. Modena City Ramblers - Lontano.wav

Peak level 99.9 %
Track quality 100.0 %
Copy CRC 72D364E3
Cannot be verified as accurate (confidence 1) [F563FB8A], AccurateRip returned [9B8DEE32]
Copy OK

Track 9

Filename D:\Ripped\09. Modena City Ramblers - Al Fiómm.wav

Peak level 99.9 %
Track quality 100.0 %
Copy CRC AF634E7B
Cannot be verified as accurate (confidence 1) [FF4831A1], AccurateRip returned [6E754B19]
Copy OK

Track 10

Filename D:\Ripped\10. Modena City Ramblers - Il Testamento Di Tito.wav

Peak level 99.9 %
Track quality 100.0 %
Copy CRC F10E97D4
Cannot be verified as accurate (confidence 1) [BB036310], AccurateRip returned [069B894A]
Copy OK

Track 11

Filename D:\Ripped\11. Modena City Ramblers - Altri Mondi.wav

Peak level 99.9 %
Track quality 100.0 %
Copy CRC 15292898
Cannot be verified as accurate (confidence 1) [F19116D5], AccurateRip returned [2B9A54EF]
Copy OK

Track 12

Filename D:\Ripped\12. Modena City Ramblers - La Fòla Ed La Sira.wav

Peak level 89.1 %
Track quality 99.9 %
Copy CRC 10F34DBC
Cannot be verified as accurate (confidence 1) [4164031A], AccurateRip returned [FDE1762C]
Copy OK


No tracks could be verified as accurate
You may have a different pressing from the one(s) in the database

No errors occurred

End of status report

Cue:

REM GENRE Folk/Rock
REM DATE 2004
REM DISCID 920CF20C
REM COMMENT "ExactAudioCopy v0.99pb5"
CATALOG 0602498164600
PERFORMER "Modena City Ramblers"
TITLE "IViva La Vida, Muera La Muerte!"
FILE "01. Modena City Ramblers - Viva La Vida.wav" WAVE
TRACK 01 AUDIO
TITLE "Viva La Vida"
PERFORMER "Modena City Ramblers"
ISRC IT7000300411
INDEX 01 00:00:00
FILE "02. Modena City Ramblers - El Presidente.wav" WAVE
TRACK 02 AUDIO
TITLE "El Presidente"
PERFORMER "Modena City Ramblers"
ISRC IT7000300412
INDEX 01 00:00:00
FILE "03. Modena City Ramblers - Ramblers Blues.wav" WAVE
TRACK 03 AUDIO
TITLE "Ramblers Blues"
PERFORMER "Modena City Ramblers"
ISRC IT7000300413
INDEX 01 00:00:00
TRACK 04 AUDIO
TITLE "I Cento Passi"
PERFORMER "Modena City Ramblers"
ISRC IT7000300414
INDEX 00 04:15:42
FILE "04. Modena City Ramblers - I Cento Passi.wav" WAVE
INDEX 01 00:00:00
TRACK 05 AUDIO
TITLE "Mira Niño"
PERFORMER "Modena City Ramblers"
ISRC IT7000300415
INDEX 00 04:23:45
FILE "05. Modena City Ramblers - Mira Niño.wav" WAVE
INDEX 01 00:00:00
TRACK 06 AUDIO
TITLE "Ebano"
PERFORMER "Modena City Ramblers"
ISRC IT7000300416
INDEX 00 04:08:60
FILE "06. Modena City Ramblers - Ebano.wav" WAVE
INDEX 01 00:00:00
FILE "07. Modena City Ramblers - Stella Sul Mare.wav" WAVE
TRACK 07 AUDIO
TITLE "Stella Sul Mare"
PERFORMER "Modena City Ramblers"
ISRC IT7000300417
INDEX 01 00:00:00
FILE "08. Modena City Ramblers - Lontano.wav" WAVE
TRACK 08 AUDIO
TITLE "Lontano"
PERFORMER "Modena City Ramblers"
ISRC IT7000300418
INDEX 01 00:00:00
FILE "09. Modena City Ramblers - Al Fiómm.wav" WAVE
TRACK 09 AUDIO
TITLE "Al Fiómm"
PERFORMER "Modena City Ramblers"
ISRC IT7000300422
INDEX 01 00:00:00
TRACK 10 AUDIO
TITLE "Il Testamento Di Tito"
PERFORMER "Modena City Ramblers"
ISRC IT7000300419
INDEX 00 03:00:53
FILE "10. Modena City Ramblers - Il Testamento Di Tito.wav" WAVE
INDEX 01 00:00:00
TRACK 11 AUDIO
TITLE "Altri Mondi"
PERFORMER "Modena City Ramblers"
ISRC IT7000300420
INDEX 00 06:55:42
FILE "11. Modena City Ramblers - Altri Mondi.wav" WAVE
INDEX 01 00:00:00
FILE "12. Modena City Ramblers - La Fòla Ed La Sira.wav" WAVE
TRACK 12 AUDIO
TITLE "La Fòla Ed La Sira"
PERFORMER "Modena City Ramblers"
ISRC IT7000300421
INDEX 01 00:00:00




Homepage

Download Modena City Ramblers - ¡Viva la vida, muera la muerte!

Rapidshare

Part 1 | Part 2 | Part 3 | Part 4

Hotfile

Part 1 | Part 2 | Part 3 | Part 4

NO MIRRORS PLEASE !!!
ADVERTISING » Download fast « ADVERTISING
No comments for the news
Recent searches:
DONATE AVAXHOME:

Donate please!