Loading...
Done
Home > Music
Miles Davis - Seven Steps (Complete Columbia Recordings of M. Davis, 1963-64), CD.6 of 7
Posted By : Oceandrop | Date : 05 Mar 2022 13:00:18 | Comments : 3

Miles Davis - Seven Steps (Complete Columbia Recordings of M. Davis, 1963-64), CD.6 of 7
Jazz | EAC | FLAC (Compressed CD Image, Level=5), CUE, LOG, Rapidshare, 4 parts, 351 MB. total
Complete "Unmodified JPG" Scans (Other types of scans will be finished with the 7th CD)
WinRar Archive with 5% recovery record included
Audio CD (September 28, 2021), Label Sony, Original Release Date: September 28, 2004, 7-CD Boxset, Limited Edition

Covers the crucial and transitional year-and-a-half period post-John Coltrane and pre-second great quintet.
Contains 8 Previously-Unreleased Tracks 3 tracks in unedited form for 1st time.
Features Wayne Shorter, George Coleman, Sam Rivers, Herbie Hancock, Victor Feldman, Ron Carter, Tony Williams and Frank Butler.
Covers such classic LP's as Seven Steps to Heaven, My Funny Valentine, Miles Davis in Europe and Four & More, among others.
Captures Miles around the world! - Juan-les-Pins, France, Berlin, Tokyo, Los Angeles and New York.
Produced by Michael Cuscuna and Bob Belden.
92-page booklet with extensive liner notes by scholar Bob Blumenthal Full discography of time period
Many rare and previously-unpublished photos of all the musicians.
The Miles Davis deluxe box set series has garnered 9 Grammy Awards to date.
Sonically superior - 24-Bit Digitally Remastered.

Tracklist, CD.6 of 7
01. Introduction by Teruo Isono
02. If I Were a Bell
03. My Funny Valentine
04. So What
05. Walkin'
06. All of You
07. Go-Go (Theme)

EAC-log
Exact Audio Copy V0.99 prebeta 5 from 4. May 2009

EAC extraction logfile from 4. March 2010, 1:39

Miles Davis / Seven Steps [BoxSet], CD.6 of 7

Used drive : ASUS DRW-1608P3S Adapter: 0 ID: 1

Read mode : Secure
Utilize accurate stream : Yes
Defeat audio cache : Yes
Make use of C2 pointers : No

Read offset correction : 48
Overread into Lead-In and Lead-Out : No
Fill up missing offset samples with silence : Yes
Delete leading and trailing silent blocks : No
Null samples used in CRC calculations : Yes
Used interface : Native Win32 interface for Win NT & 2000

Used output format : User Defined Encoder
Selected bitrate : 1024 kBit/s
Quality : High
Add ID3 tag : No
Command line compressor : C:\Program Files\Exact Audio Copy\FLAC\FLAC.EXE
Additional command line options : -5 -V -T "ARTIST=%a" -T "TITLE=%t" -T "ALBUM=%g" -T "DATE=%y" -T "TRACKNUMBER=%n" -T "GENRE=%m" -T "COMMENT=%e" %s -o %d


TOC of the extracted CD

Track | Start | Length | Start sector | End sector
---------------------------------------------------------
1 | 0:00.00 | 1:10.10 | 0 | 5259
2 | 1:10.10 | 10:17.12 | 5260 | 51546
3 | 11:27.22 | 12:50.33 | 51547 | 109329
4 | 24:17.55 | 8:05.35 | 109330 | 145739
5 | 32:23.15 | 9:15.00 | 145740 | 187364
6 | 41:38.15 | 11:18.30 | 187365 | 238244
7 | 52:56.45 | 1:20.40 | 238245 | 244284


Range status and errors

Selected range

Filename C:\work\Miles Davis - Seven Steps [BoxSet], CD.6 of 7\Miles Davis - Seven Steps [BoxSet], CD.6 of 7.wav

Peak level 99.8 %
Range quality 100.0 %
Test CRC B0D76585
Copy CRC B0D76585
Copy OK

No errors occurred


AccurateRip summary

Track 1 accurately ripped (confidence 11) [1C59F45D]
Track 2 accurately ripped (confidence 11) [35F7B04C]
Track 3 accurately ripped (confidence 11) [9644AB26]
Track 4 accurately ripped (confidence 11) [88A21E7C]
Track 5 accurately ripped (confidence 11) [FD526C08]
Track 6 accurately ripped (confidence 11) [56BB5B32]
Track 7 accurately ripped (confidence 10) [8603D128]

All tracks accurately ripped

End of status report

CUEtools-results
[Verification date: 04.03.2022 01:50:22]
[Disc ID: 000efb0c-005cbbb7-620cb907]
Track [ CRC ] Status
01 [1c59f45d] (11/47) Accurately ripped
02 [35f7b04c] (11/47) Accurately ripped
03 [9644ab26] (11/46) Accurately ripped
04 [88a21e7c] (11/47) Accurately ripped
05 [fd526c08] (11/47) Accurately ripped
06 [56bb5b32] (11/47) Accurately ripped
07 [8603d128] (10/45) Accurately ripped
Offsetted by -1281:
01 [8780e47e] (22/47) Accurately ripped
02 [eb12ce5e] (22/47) Accurately ripped
03 [237e72f4] (22/46) Accurately ripped
04 [bd63bbfb] (22/47) Accurately ripped
05 [63f47874] (22/47) Accurately ripped
06 [f0dd4b0d] (22/47) Accurately ripped
07 [6b3b3115] (21/45) Accurately ripped

Track [ CRC32 ] [W/O NULL]
-- [B0D76585] [1CBBDDD3]
01 [CFC554FE] [AB397839]
02 [8D6E2319] [08CE385C]
03 [80A96DF3] [167CF959]
04 [D5EB18B8] [FC7F5EB0]
05 [B9DD8AC7] [E1F8543A]
06 [988DEC83] [635236D5]
07 [7CE8C53D] [4E060203]

CUE-Sheet file
REM GENRE Jazz
REM DATE 2004
REM DISCID 620CB907
REM COMMENT "ExactAudioCopy v0.99pb5"
PERFORMER "Miles Davis"
TITLE "Seven Steps [BoxSet], CD.6 of 7"
FILE "Miles Davis - Seven Steps [BoxSet], CD.6 of 7.flac" WAVE
TRACK 01 AUDIO
TITLE "Introduction by Teruo Isono"
PERFORMER "Miles Davis"
INDEX 01 00:00:00
TRACK 02 AUDIO
TITLE "If I Were a Bell"
PERFORMER "Miles Davis"
INDEX 01 01:10:10
TRACK 03 AUDIO
TITLE "My Funny Valentine"
PERFORMER "Miles Davis"
INDEX 00 11:25:52
INDEX 01 11:27:22
TRACK 04 AUDIO
TITLE "So What"
PERFORMER "Miles Davis"
INDEX 00 24:15:62
INDEX 01 24:17:55
TRACK 05 AUDIO
TITLE "Walkin'"
PERFORMER "Miles Davis"
INDEX 00 32:21:27
INDEX 01 32:23:15
TRACK 06 AUDIO
TITLE "All of You"
PERFORMER "Miles Davis"
INDEX 00 41:36:30
INDEX 01 41:38:15
TRACK 07 AUDIO
TITLE "Go-Go (Theme)"
PERFORMER "Miles Davis"
INDEX 01 52:56:45

RapidShare Downloads:
FLAC (Compressed CD Image, Level=5); 4 parts, 351 MB. total
http://rapidshare.com/files/358633788/SSMDBXSC6FC.part1.rar
http://rapidshare.com/files/358638546/SSMDBXSC6FC.part2.rar
http://rapidshare.com/files/358643541/SSMDBXSC6FC.part3.rar
http://rapidshare.com/files/358646798/SSMDBXSC6FC.part4.rar

Complete "Unmodified JPG" Scans (they were taken in 400dpi. BMP, then converted to JPG with Ashampoo Photo Commander-7)
3 parts, 325 MB. total
http://rapidshare.com/files/358954246/SSMDBXSAUJPG.part1.rar
http://rapidshare.com/files/358963023/SSMDBXSAUJPG.part2.rar
http://rapidshare.com/files/358971464/SSMDBXSAUJPG.part3.rar

Password (for all): www.AvaxHome.ru
ADVERTISING » Download fast « ADVERTISING
Posted By: libra_winmx Date: 05 Mar 2022 19:12:21
Dear Oceandrop, hi,

Great for the 6 CD!!!!!
Thank you so much for your excellent post!!!!!
Gracias,

libraw
Posted By: Oceandrop Date: 05 Mar 2022 19:27:56
You're wellcome @libra winmx; 7th and last CD is on the way, don't go this night from AvaxHome...
Regards...
Posted By: pguppgdn Date: 06 Mar 2022 06:55:06
Million thanx for sharing this amazing collection, never heard better before. It was the best period of Miles Davis. Killer sound, but bad scans. Thanks for additional JPG collection. In order to save time and money, I made another in two hours.

After optimal house keeping (rotate, cut, convert) staying on 400 dpi, I get a single archive of acceptable 45MB!

http://rapidshare.com/files/359504238/Miles7art.rar

[PS] oceandrop, you own me two beers.
Recent searches:
DONATE AVAXHOME:

Donate please!