Loading...
Done
Home > Music
Miles Davis - Seven Steps (Complete Columbia Recordings of M. Davis, 1963-64), CD.5 of 7
Posted By : Oceandrop | Date : 04 Mar 2022 21:12:55 | Comments : 8

Miles Davis - Seven Steps (Complete Columbia Recordings of M. Davis, 1963-64), CD.5 of 7
Jazz | EAC | FLAC (Compressed CD Image, Level=5), CUE, LOG, Rapidshare, 5 parts, 426 MB. total
Rest of the Unmodified "BMP" Scans (Other types of scans will be finished with the 7th CD)
WinRar Archive with 5% recovery record included
Audio CD (September 28, 2021), Label Sony, Original Release Date: September 28, 2004, 7-CD Boxset, Limited Edition

Covers the crucial and transitional year-and-a-half period post-John Coltrane and pre-second great quintet.
Contains 8 Previously-Unreleased Tracks 3 tracks in unedited form for 1st time.
Features Wayne Shorter, George Coleman, Sam Rivers, Herbie Hancock, Victor Feldman, Ron Carter, Tony Williams and Frank Butler.
Covers such classic LP's as Seven Steps to Heaven, My Funny Valentine, Miles Davis in Europe and Four & More, among others.
Captures Miles around the world! - Juan-les-Pins, France, Berlin, Tokyo, Los Angeles and New York.
Produced by Michael Cuscuna and Bob Belden.
92-page booklet with extensive liner notes by scholar Bob Blumenthal Full discography of time period
Many rare and previously-unpublished photos of all the musicians.
The Miles Davis deluxe box set series has garnered 9 Grammy Awards to date.
Sonically superior - 24-Bit Digitally Remastered.

Tracklist, CD.5 of 7
01. Introduction by Dr. Billy Taylor
02. All Blues
03. My Funny Valentine
04. Joshua
05. I Thought About You
06. Four
07. Seven Steps to Heaven
08. There is No Greater Love
09. Go-Go (Theme and Re-Introduction)

EAC-log
Exact Audio Copy V0.99 prebeta 5 from 4. May 2009

EAC extraction logfile from 3. March 2010, 23:00

Miles Davis / Seven Steps [BoxSet], CD.5 of 7

Used drive : TSSTcorpCDDVDW SH-S203D Adapter: 1 ID: 1

Read mode : Secure
Utilize accurate stream : Yes
Defeat audio cache : Yes
Make use of C2 pointers : No

Read offset correction : 6
Overread into Lead-In and Lead-Out : No
Fill up missing offset samples with silence : Yes
Delete leading and trailing silent blocks : No
Null samples used in CRC calculations : Yes
Used interface : Native Win32 interface for Win NT & 2000

Used output format : User Defined Encoder
Selected bitrate : 1024 kBit/s
Quality : High
Add ID3 tag : No
Command line compressor : C:\Program Files\Exact Audio Copy\FLAC\FLAC.EXE
Additional command line options : -5 -V -T "ARTIST=%a" -T "TITLE=%t" -T "ALBUM=%g" -T "DATE=%y" -T "TRACKNUMBER=%n" -T "GENRE=%m" -T "COMMENT=%e" %s -o %d


TOC of the extracted CD

Track | Start | Length | Start sector | End sector
---------------------------------------------------------
1 | 0:00.00 | 0:44.60 | 0 | 3359
2 | 0:44.60 | 8:52.70 | 3360 | 43329
3 | 9:37.55 | 14:54.65 | 43330 | 110444
4 | 24:32.45 | 9:32.27 | 110445 | 153371
5 | 34:04.72 | 11:14.73 | 153372 | 203994
6 | 45:19.70 | 6:16.40 | 203995 | 232234
7 | 51:36.35 | 7:44.70 | 232235 | 267104
8 | 59:21.30 | 10:02.35 | 267105 | 312289
9 | 69:23.65 | 1:44.57 | 312290 | 320146


Range status and errors

Selected range

Filename D:\Miles Davis - Seven Steps [BoxSet], CD.5 of 7\Miles Davis - Seven Steps [BoxSet], CD.5 of 7.wav

Peak level 98.8 %
Range quality 100.0 %
Test CRC A3CEDCDA
Copy CRC A3CEDCDA
Copy OK

No errors occurred


AccurateRip summary

Track 1 accurately ripped (confidence 11) [39EBCDCF]
Track 2 accurately ripped (confidence 11) [9B248AB8]
Track 3 accurately ripped (confidence 11) [26D53486]
Track 4 accurately ripped (confidence 11) [B68143CD]
Track 5 accurately ripped (confidence 11) [C5F20501]
Track 6 accurately ripped (confidence 11) [749C7986]
Track 7 accurately ripped (confidence 12) [36FE052E]
Track 8 accurately ripped (confidence 11) [F1C420C0]
Track 9 accurately ripped (confidence 11) [FD0CF038]

All tracks accurately ripped

End of status report

CUEtools-results
[Verification date: 04.03.2022 01:30:25]
[Disc ID: 00191ec7-00bc5a4e-7e10ac09]
Track [ CRC ] Status
01 [39ebcdcf] (11/34) Accurately ripped
02 [9b248ab8] (11/34) Accurately ripped
03 [26d53486] (11/34) Accurately ripped
04 [b68143cd] (11/34) Accurately ripped
05 [c5f20501] (11/34) Accurately ripped
06 [749c7986] (11/34) Accurately ripped
07 [36fe052e] (12/35) Accurately ripped
08 [f1c420c0] (11/34) Accurately ripped
09 [fd0cf038] (11/33) Accurately ripped
Offsetted by -682:
01 [2d2e6b62] (23/34) Accurately ripped
02 [d6954e01] (23/34) Accurately ripped
03 [c532e4d5] (23/34) Accurately ripped
04 [03881f8a] (23/34) Accurately ripped
05 [d2ec5cdf] (23/34) Accurately ripped
06 [78a4de35] (23/34) Accurately ripped
07 [efb5c69c] (23/35) Accurately ripped
08 [7ff41ab5] (23/34) Accurately ripped
09 [d6e82b0a] (22/33) Accurately ripped

Track [ CRC32 ] [W/O NULL]
-- [A3CEDCDA] [D14E68C1]
01 [3FF87F9F] [0270129F]
02 [CC40DFB0] [B134CE32]
03 [6220708D] [88274F0B]
04 [5371F4AC] [64915693]
05 [82C7C7EB] [FEAB54E3]
06 [30EF57CA] [EA4F1905]
07 [D084B2F6] [807FCA03]
08 [78EB2D18] [79786457]
09 [35EBF203] [D5A47E9C]

CUE-Sheet file
REM GENRE Jazz
REM DISCID 7E10AC09
REM COMMENT "ExactAudioCopy v0.99pb5"
PERFORMER "Miles Davis"
TITLE "Seven Steps [BoxSet], CD.5 of 7"
FILE "Miles Davis - Seven Steps [BoxSet], CD.5 of 7.flac" WAVE
TRACK 01 AUDIO
TITLE "Introduction (by Billy Taylor)"
PERFORMER "Miles Davis"
INDEX 01 00:00:00
TRACK 02 AUDIO
TITLE "All Blues"
PERFORMER "Miles Davis"
INDEX 01 00:44:60
TRACK 03 AUDIO
TITLE "My Funny Valentine"
PERFORMER "Miles Davis"
INDEX 01 09:37:55
TRACK 04 AUDIO
TITLE "Joshua"
PERFORMER "Miles Davis"
INDEX 01 24:32:45
TRACK 05 AUDIO
TITLE "I Thought About You"
PERFORMER "Miles Davis"
INDEX 01 34:04:72
TRACK 06 AUDIO
TITLE "Four"
PERFORMER "Miles Davis"
INDEX 01 45:19:70
TRACK 07 AUDIO
TITLE "Seven Steps to Heaven"
PERFORMER "Miles Davis"
INDEX 01 51:36:35
TRACK 08 AUDIO
TITLE "There Is No Greater Love"
PERFORMER "Miles Davis"
INDEX 01 59:21:30
TRACK 09 AUDIO
TITLE "Go-Go (Theme and Re-Introduction)"
PERFORMER "Miles Davis"
INDEX 01 69:23:65

RapidShare Downloads:
FLAC (Compressed CD Image, Level=5); 5 parts, 426 MB. total
http://rapidshare.com/files/358611758/SSMDBXSC5FC.part1.rar
http://rapidshare.com/files/358617228/SSMDBXSC5FC.part2.rar
http://rapidshare.com/files/358622420/SSMDBXSC5FC.part3.rar
http://rapidshare.com/files/358627348/SSMDBXSC5FC.part4.rar
http://rapidshare.com/files/358629476/SSMDBXSC5FC.part5.rar

Rest of the unmodified "BMP" scans, @400dpi.
(If you haven't downloaded any scan about this boxset;
please look at my one previous post, CD.4 of 7, before downloading below links)

Part-II of IV; 5 parts, 479 MB. total
http://rapidshare.com/files/358851998/SSMDBXSAUBMP2.part01.rar
http://rapidshare.com/files/358861452/SSMDBXSAUBMP2.part02.rar
http://rapidshare.com/files/358875261/SSMDBXSAUBMP2.part03.rar
http://rapidshare.com/files/358884670/SSMDBXSAUBMP2.part04.rar
http://rapidshare.com/files/358884930/SSMDBXSAUBMP2.part05.rar

Part-III of IV; 3 parts, 354 MB. total
http://rapidshare.com/files/358909161/SSMDBXSAUBMP3.part1.rar
http://rapidshare.com/files/358918210/SSMDBXSAUBMP3.part2.rar
http://rapidshare.com/files/358927895/SSMDBXSAUBMP3.part3.rar

Part-IV of IV; 2 parts, 219 MB. total
http://rapidshare.com/files/358937282/SSMDBXSAUBMP4.part1.rar
http://rapidshare.com/files/358945492/SSMDBXSAUBMP4.part2.rar

Password (for all): www.AvaxHome.ru
ADVERTISING » Download fast « ADVERTISING
Posted By: libra_winmx Date: 04 Mar 2022 21:33:16
Dear Oceandrop, hi,

Thank you so much!
Gracias,

libra
Posted By: Oceandrop Date: 04 Mar 2022 21:36:07
Enjoy it dear @librawinmx.. I'm happy also I hope this boxset-post will finish tomorrow, not next Wednesday as I planned before..

* Also I thank all friends downloading BMP posts (I can see from my R.S. Collector Account);
for their great respect and love to "jazz" and great "Miles Davis"...
Posted By: libra_winmx Date: 04 Mar 2022 23:36:14
Dear Oceandro, hi,

You are of congratulations, because Miles is one of the most important musicians of last century, and his influence in the modernity is explicit and praiseworthy.
Congratulations.
Gracias,

libra


Posted By: onizuka23 Date: 05 Mar 2022 01:53:39
Thank you so much Oceandrop, this post is really wonderful.
Im starting download the others cds now!
Posted By: Oceandrop Date: 05 Mar 2022 09:46:04
Thanks @onizuka23 & librawinmx... I agree with @librawinmx; I think, Miles's "Kind of Blue" album is enough
to understand his importance in jazz. It's also an album for me, that never looses
anything from it's meaning and taste, even if I will listen it to the end of my life...
If friends don't misuderstand me; if they didn't listen this album yet; I suggest hardly them to take
this album in their archive...
(If they search in AvaxHome search, like (with quates); "Miles Davis" "Kind of Blue"; they will find lots
of posts in Avax.)
Regards...
Posted By: Canardo Date: 05 Mar 2022 11:18:17
Oceandrop, this must have been a LOT of work.I am shure that I,m not the only one
enjoying your hard labor. I close my eyes and I,m there! Thanks again.
Posted By: Oceandrop Date: 05 Mar 2022 11:24:38
Thanks again @Canardo for your big kindness.. By this comments, I understand that I don't give effort
to this sharings uselessly.. Believe, again I say; I be happy as less as downloader friends; when you
like this posts; and you love this unexplainable excellent art, "jazz". (as a man sometimes made fun with me,
or even sometimes being insulted, because of I love and listen jazz.)
Regards,
Posted By: pguppgdn Date: 06 Mar 2022 06:52:31
Million thanx for sharing this amazing collection, never heard better before. It was the best period of Miles Davis. Killer sound, but bad scans. Thanks for additional JPG collection. In order to save time and money, I made another in two hours.

After optimal house keeping (rotate, cut, convert) staying on 400 dpi, I get a single archive of acceptable 45MB!

http://rapidshare.com/files/359504238/Miles7art.rar

[PS] oceandrop, you own me two beers.
Recent searches:
DONATE AVAXHOME:

Donate please!