Loading...
Done
Home > Music
Miles Davis - Seven Steps (Complete Columbia Recordings of M. Davis, 1963-64), CD.2 of 7
Posted By : Oceandrop | Date : 04 Mar 2022 01:34:02 | Comments : 6

Miles Davis - Seven Steps (Complete Columbia Recordings of M. Davis, 1963-64), CD.2 of 7
Jazz | EAC | FLAC (Compressed CD Image, Level=5), CUE, LOG, Rapidshare, 4 parts, 294 MB. total
No Scans (Complete scans will be posted with the 7th CD)
WinRar Archive with 5% recovery record included
Audio CD (September 28, 2021), Label Sony, Original Release Date: September 28, 2004, 7-CD Boxset, Limited Edition

Covers the crucial and transitional year-and-a-half period post-John Coltrane and pre-second great quintet.
Contains 8 Previously-Unreleased Tracks 3 tracks in unedited form for 1st time.
Features Wayne Shorter, George Coleman, Sam Rivers, Herbie Hancock, Victor Feldman, Ron Carter, Tony Williams and Frank Butler.
Covers such classic LP's as Seven Steps to Heaven, My Funny Valentine, Miles Davis in Europe and Four & More, among others.
Captures Miles around the world! - Juan-les-Pins, France, Berlin, Tokyo, Los Angeles and New York.
Produced by Michael Cuscuna and Bob Belden.
92-page booklet with extensive liner notes by scholar Bob Blumenthal Full discography of time period
Many rare and previously-unpublished photos of all the musicians.
The Miles Davis deluxe box set series has garnered 9 Grammy Awards to date.
Sonically superior - 24-Bit Digitally Remastered.

A little request of mines...
In order to obtain better scans; can friends look at my comment, I wrote after @abalone and @Canardo;
and say something? (In the CD.1 of 7 post of this BoxSet, my first previous post)
Thank you...


Tracklist, CD.2 of 7
01. Seven Steps to Heaven (rehearsal take) (*)
02. Seven Steps to Heaven
03. So Near, So Far
04. Joshua
05. Introduction by Andre Francis
06. Autumn Leaves
07. Milkestones
08. I Thought About You

(*) = Previously Unissued

EAC-log
Exact Audio Copy V0.99 prebeta 5 from 4. May 2009

EAC extraction logfile from 3. March 2010, 20:22

Miles Davis / Seven Steps [BoxSet], CD.2 of 7

Used drive : ASUS DRW-1608P3S Adapter: 0 ID: 1

Read mode : Secure
Utilize accurate stream : Yes
Defeat audio cache : Yes
Make use of C2 pointers : No

Read offset correction : 48
Overread into Lead-In and Lead-Out : No
Fill up missing offset samples with silence : Yes
Delete leading and trailing silent blocks : No
Null samples used in CRC calculations : Yes
Used interface : Native Win32 interface for Win NT & 2000

Used output format : User Defined Encoder
Selected bitrate : 1024 kBit/s
Quality : High
Add ID3 tag : No
Command line compressor : C:\Program Files\Exact Audio Copy\FLAC\FLAC.EXE
Additional command line options : -5 -V -T "ARTIST=%a" -T "TITLE=%t" -T "ALBUM=%g" -T "DATE=%y" -T "TRACKNUMBER=%n" -T "GENRE=%m" -T "COMMENT=%e" %s -o %d


TOC of the extracted CD

Track | Start | Length | Start sector | End sector
---------------------------------------------------------
1 | 0:00.00 | 6:59.15 | 0 | 31439
2 | 6:59.15 | 6:24.67 | 31440 | 60306
3 | 13:24.07 | 6:58.48 | 60307 | 91704
4 | 20:22.55 | 7:00.37 | 91705 | 123241
5 | 27:23.17 | 0:59.73 | 123242 | 127739
6 | 28:23.15 | 13:54.52 | 127740 | 190341
7 | 42:17.67 | 9:17.25 | 190342 | 232141
8 | 51:35.17 | 11:47.53 | 232142 | 285219


Range status and errors

Selected range

Filename C:\extracts\Miles Davis - Seven Steps [BoxSet], CD.2 of 7\Miles Davis - Seven Steps [BoxSet], CD.2 of 7.wav

Peak level 100.0 %
Range quality 100.0 %
Test CRC B8BEF0B6
Copy CRC B8BEF0B6
Copy OK

No errors occurred


AccurateRip summary

Track 1 accurately ripped (confidence 11) [D19A9A47]
Track 2 accurately ripped (confidence 11) [C07ADAAA]
Track 3 accurately ripped (confidence 11) [F6F39186]
Track 4 accurately ripped (confidence 11) [104481B4]
Track 5 accurately ripped (confidence 11) [6E2460BE]
Track 6 accurately ripped (confidence 11) [68E780E1]
Track 7 accurately ripped (confidence 11) [3EAF69CD]
Track 8 accurately ripped (confidence 11) [53BE6934]

All tracks accurately ripped

End of status report

CUEtools-results
[Verification date: 03.03.2022 20:31:32]
[Disc ID: 00116d7a-00764096-630eda08]
Track [ CRC ] Status
01 [d19a9a47] (11/34) Accurately ripped
02 [c07adaaa] (11/32) Accurately ripped
03 [f6f39186] (11/35) Accurately ripped
04 [104481b4] (11/35) Accurately ripped
05 [6e2460be] (11/34) Accurately ripped
06 [68e780e1] (11/34) Accurately ripped
07 [3eaf69cd] (11/34) Accurately ripped
08 [53be6934] (11/34) Accurately ripped
Offsetted by -682:
01 [0d3751e2] (23/34) Accurately ripped
02 [a6cb31af] (21/32) Accurately ripped
03 [39453e32] (24/35) Accurately ripped
04 [3a9f3d7a] (24/35) Accurately ripped
05 [9f8517c2] (23/34) Accurately ripped
06 [1b911f48] (23/34) Accurately ripped
07 [a23612f0] (23/34) Accurately ripped
08 [87c89cfa] (23/34) Accurately ripped

Track [ CRC32 ] [W/O NULL]
-- [B8BEF0B6] [705A8677]
01 [920644E5] [C36988E7]
02 [BC1E486D] [E726A387]
03 [76528D1E] [03B2BB9C]
04 [92A8DD04] [6A5FA58B]
05 [AFBEE512] [8F70543B]
06 [E9EC824D] [1896418B]
07 [71C51274] [DA42C537]
08 [2FCAC996] [CF4C7728]

RapidShare Downloads:
FLAC (Compressed CD Image), 4 parts, 325 MB. total
http://rapidshare.com/files/358490825/SSMDBXSC2FC.part1.rar
http://rapidshare.com/files/358512706/SSMDBXSC2FC.part2.rar
http://rapidshare.com/files/358501820/SSMDBXSC2FC.part3.rar
http://rapidshare.com/files/358478294/SSMDBXSC2FC.part4.rar

Password: www.AvaxHome.ru
ADVERTISING » Download fast « ADVERTISING
Posted By: libra_winmx Date: 04 Mar 2022 01:37:24
Dear Oceandrop, hi,

Thank you very much, cause I didn't have this work of Miles. Thank you, also, for your message!
Thanks.
Gracias,

librawinmx, from Brazil, Rio de Janeiro
Posted By: d'Avignon Date: 04 Mar 2022 02:38:22
Hello Oceandrop, looks to me your sample scan in the previous post is the only way to do it. It won't get any better unless you damage either scanner or booklet, I think. Which is not advisable of course.
I can tell from the scan that booklet is the size of a novel. Good luck...
Posted By: Oceandrop Date: 04 Mar 2022 09:41:12
Thanks a lot @librawinmx, and @d'Avignon... Yes, d'Avignon, I realised that it's nearly impossible as you said,
with my current situation (maybe in some of newer scanners, this situation has been thinked by designers, but my
scanner is more than two years old, therefore I don't have any change)..
I'm some sad now with understand this situation; but hope friends can understand me;
there's no way to get better scans without damaging the booklet or scanner as @d'Avignon said before...
I can only do such a change; because of there are a lot of pages to scan; I was decided to take the scans
@300 dpi; but now it's clear there will be disadvantage in scans; so I changed my mind, I'll take the scans
@400 dpi... I believe this would be better;
Regards friends...
Posted By: ANSELMO52 Date: 04 Mar 2022 15:54:54
Only a single word: thanks!
Posted By: Oceandrop Date: 05 Mar 2022 21:12:09
Many thanks at you also, @ANSELMO52...
Enjoy it also...
Posted By: pguppgdn Date: 06 Mar 2022 06:42:34
Million thanx for sharing this amazing collection, never heard better before. It was the best period of Miles Davis. Killer sound, but bad scans. Thanks for additional JPG collection. In order to save time and money, I made another in two hours.

After optimal house keeping (rotate, cut, convert) staying on 400 dpi, I get a single archive of acceptable 45MB!

http://rapidshare.com/files/359504238/Miles7art.rar

[PS] oceandrop, you own me two beers.
Recent searches:
DONATE AVAXHOME:

Donate please!