Loading...
Done
Home > Music
Makoto Ozone - Dear Oscar
Posted By : T├╝rkJazzMania | Date : 08 Feb 2022 14:40:27 | Comments : 1

Makoto Ozone - Dear Oscar
Jazz | EAC | FLAC (Compressed CD Image), CUE, LOG, Rapidshare, 4 parts, 314 MB. total
Complete Scans: Unmodified (4,46 MB.) & Modified (9,41 MB.)
WinRar Archive with 5% recovery record included
Audio CD (January 20, 2022), Label: Verve, Release Date: January 20, 2004, 1 CD

Makoto Ozone (piano) with; Kiyoshi Kitagawa (bass) and Clarence Penn (drums).

For me; a very tasteful and energic pianist from Japan; who deeply influenced by godfather Oscar Peterson;
as he writes in this albums covers, also... I readed in a jazz history book, he was playing organ, before deciding
to be a jazz pianist; and when he hearded Oscar Peterson; his world has changed... Thanks God, to be like that,
because of this; the huge jazz ocean has gained a very tasteful and talented pianist...

Hope you will like this beautiful album, also... Makoto shows his respect to Oscar Peterson in many ways; for example
by playing two excellent compositions that I love a lot, from Oscar Peterson (Blues Etude & Bossa Beguine),
with his own composition; the opening track "Dear Oscar", playing "Autumn Leaves" with the Oscar's style in the beginnings, etc...

Regards friends...

Tracklist:
01. Dear Oscar
02. Test of Time
03. Wheatland
04. Autumn Leaves
05. Land of the Misty Giants
06. City Lights
07. Bossa Beguine
08. Cubana Chant
09. Blues Etude
10. Exactly Like You

EAC-log
Exact Audio Copy V0.99 prebeta 5 from 4. May 2009

EAC extraction logfile from 4. February 2010, 13:12

Makoto Ozone / Dear Oscar

Used drive : ASUS CRW-5232AS Adapter: 0 ID: 0

Read mode : Secure
Utilize accurate stream : Yes
Defeat audio cache : Yes
Make use of C2 pointers : No

Read offset correction : 6
Overread into Lead-In and Lead-Out : No
Fill up missing offset samples with silence : Yes
Delete leading and trailing silent blocks : No
Null samples used in CRC calculations : Yes
Used interface : Native Win32 interface for Win NT & 2000

Used output format : User Defined Encoder
Selected bitrate : 1024 kBit/s
Quality : High
Add ID3 tag : No
Command line compressor : C:\Program Files\Exact Audio Copy\FLAC\FLAC.EXE
Additional command line options : -6 -V -T "ARTIST=%a" -T "TITLE=%t" -T "ALBUM=%g" -T "DATE=%y" -T "TRACKNUMBER=%n" -T "GENRE=%m" -T "COMMENT=%e" %s -o %d


TOC of the extracted CD

Track | Start | Length | Start sector | End sector
---------------------------------------------------------
1 | 0:00.05 | 5:40.52 | 5 | 25556
2 | 5:40.57 | 6:33.45 | 25557 | 55076
3 | 12:14.27 | 5:14.13 | 55077 | 78639
4 | 17:28.40 | 6:14.30 | 78640 | 106719
5 | 23:42.70 | 7:28.35 | 106720 | 140354
6 | 31:11.30 | 6:33.42 | 140355 | 169871
7 | 37:44.72 | 6:05.38 | 169872 | 197284
8 | 43:50.35 | 4:22.15 | 197285 | 216949
9 | 48:12.50 | 6:17.20 | 216950 | 245244
10 | 54:29.70 | 5:42.22 | 245245 | 270916


Range status and errors

Selected range

Filename C:\extracts\Makoto Ozone - Dear Oscar\Makoto Ozone - Dear Oscar.wav

Peak level 97.8 %
Range quality 100.0 %
Test CRC 4B7262F1
Copy CRC 4B7262F1
Copy OK

No errors occurred


AccurateRip summary

Track 1 accurately ripped (confidence 1) [77E15CD0]
Track 2 accurately ripped (confidence 1) [0791F48A]
Track 3 accurately ripped (confidence 1) [E378A15B]
Track 4 accurately ripped (confidence 1) [3D5C365D]
Track 5 accurately ripped (confidence 1) [EF20B3BB]
Track 6 accurately ripped (confidence 1) [131E6C16]
Track 7 accurately ripped (confidence 1) [9CEA6545]
Track 8 accurately ripped (confidence 1) [1047B5BD]
Track 9 accurately ripped (confidence 1) [8DD27C8B]
Track 10 accurately ripped (confidence 1) [83D054CD]

All tracks accurately ripped

End of status report

RapidShare Downloads:
FLAC tracks, 4 parts; 314 MB. total
http://rapidshare.com/files/347666312/MODOFC.part1.rar
http://rapidshare.com/files/347683529/MODOFC.part2.rar
http://rapidshare.com/files/347687508/MODOFC.part3.rar
http://rapidshare.com/files/347689692/MODOFC.part4.rar

Scans (unmodified); 4,46 MB.
http://rapidshare.com/files/347688434/MODOAU.rar

Scans (cutted, rotated, auto-optimized); 9,41 MB.
http://rapidshare.com/files/347691483/MODOAM.rar

Password (for all): www.AvaxHome.ru
ADVERTISING » Download fast « ADVERTISING
Posted By: acaciatree Date: 08 Feb 2022 16:34:08
thank you very much.
Recent searches:
DONATE AVAXHOME:

Donate please!