Loading...
Done
Home > Music
Posted By : SteveJobs | Date : 19 Mar 2022 12:15:02 | Comments : 2 |

Liliental - Liliental (1978)
XLD Rip | Flac (Tracks) Cue, Log, m3u, md5, st5, ffp | complete Artwork 300 dpi | 270 MB
Electronic, Ambient | 2007 | Brain/SPV/Revisited Records | SPV 49862 CD

Liliental was the sort of "supergroup" usually only seen in England or America, with everyone being not only stellar musicians but also the leaders of their respective bands.

Electronic music pioneer Dieter Moebius (Cluster, Harmonia) wanted to record an album together with his musical soul-mates, Okko Bekker and Asmus Tietchens, at Conny Plank s studio in 1976. In the event, Plank himself even participated in the recordings as a musician. Two other musicians also joined the fold: bassist Helmut Hattler and saxophonist Johannes Pappert (both from Kraan) had just finished working on an album and were happy to stay on at the studio. Suddenly, there were six musicians with six different personalities who had never worked together before. But what could easily have gone wrong turned into a great document of electronic music, which was rather atypical for its time and conveyed a certain lightness, revealing complex structures on closer inspection. This is the first official Liliental release on CD.

Asmus Tietchens
Okko Bekker
Conny Plank
Johannes Pappert
Helmut Hattler

Produced by Moebius & Plank



Tracklisting
01 - Stresemannstrasse
02 - Adel
03 - Wattwurm
04 - Vielharmonie
05 - Gebremster Schaum
06 - Nachsaison



XLD Log
X Lossless Decoder version 20100302 (116.6)

XLD extraction logfile from 2022-03-16 12:57:16 +0100

Liliental / Liliental

Used drive : PIONEER DVD-RW DVR-K06A (revision Q631)

Use cdparanoia mode : YES (CDParanoia III 10.2 engine)
Disable audio cache : OK for the drive with cache less than 2750KB
Make use of C2 pointers : NO
Read offset correction : 48
Max retry count : 100

TOC of the extracted CD
Track | Start | Length | Start sector | End sector
---------------------------------------------------------
1 | 00:00:00 | 05:12:22 | 0 | 23421
2 | 05:12:22 | 05:50:33 | 23422 | 49704
3 | 11:02:55 | 04:08:58 | 49705 | 68362
4 | 15:11:38 | 07:41:73 | 68363 | 103010
5 | 22:53:36 | 08:36:47 | 103011 | 141757
6 | 31:30:08 | 03:02:50 | 141758 | 155457


All Tracks
Album gain : -4.90 dB
Peak : 0.988678

Track 01
Filename : /Users/Desktop/Liliental - Liliental (1978) [FLAC]/01 - Stresemannstrasse.flac

Pre-gap length : 00:02:00

Track gain : -1.67 dB
Peak : 0.988678
CRC32 hash (test run) : E63C73D8
CRC32 hash : E63C73D8
CRC32 hash (skip zero) : 3AB1A330
AccurateRip signature : 73B20172
->Accurately ripped! (confidence 1)
Statistics
Read error : 0
Skipped (treated as error) : 0
Edge jitter error (maybe fixed) : 0
Atom jitter error (maybe fixed) : 0
Drift error (maybe fixed) : 0
Dropped bytes error (maybe fixed) : 0
Duplicated bytes error (maybe fixed) : 0
Inconsistency in error sectors : 0

Track 02
Filename : /Users/Desktop/Liliental - Liliental (1978) [FLAC]/02 - Adel.flac

Track gain : -4.46 dB
Peak : 0.988678
CRC32 hash (test run) : 3BC35889
CRC32 hash : 3BC35889
CRC32 hash (skip zero) : 8E4C1354
AccurateRip signature : FFC005CC
->Accurately ripped! (confidence 1)
Statistics
Read error : 0
Skipped (treated as error) : 0
Edge jitter error (maybe fixed) : 0
Atom jitter error (maybe fixed) : 0
Drift error (maybe fixed) : 0
Dropped bytes error (maybe fixed) : 0
Duplicated bytes error (maybe fixed) : 0
Inconsistency in error sectors : 0

Track 03
Filename : /Users/Desktop/Liliental - Liliental (1978) [FLAC]/03 - Wattwurm.flac

Pre-gap length : 00:01:08

Track gain : -6.30 dB
Peak : 0.988678
CRC32 hash (test run) : 7555CDD9
CRC32 hash : 7555CDD9
CRC32 hash (skip zero) : FCE20F07
AccurateRip signature : 62D44A4A
->Accurately ripped! (confidence 1)
Statistics
Read error : 0
Skipped (treated as error) : 0
Edge jitter error (maybe fixed) : 0
Atom jitter error (maybe fixed) : 0
Drift error (maybe fixed) : 0
Dropped bytes error (maybe fixed) : 0
Duplicated bytes error (maybe fixed) : 0
Inconsistency in error sectors : 0

Track 04
Filename : /Users/Desktop/Liliental - Liliental (1978) [FLAC]/04 - Vielharmonie.flac

Pre-gap length : 00:01:70

Track gain : -4.94 dB
Peak : 0.988678
CRC32 hash (test run) : 63173D56
CRC32 hash : 63173D56
CRC32 hash (skip zero) : 4254850E
AccurateRip signature : 806935C4
->Accurately ripped! (confidence 1)
Statistics
Read error : 0
Skipped (treated as error) : 0
Edge jitter error (maybe fixed) : 0
Atom jitter error (maybe fixed) : 0
Drift error (maybe fixed) : 0
Dropped bytes error (maybe fixed) : 0
Duplicated bytes error (maybe fixed) : 0
Inconsistency in error sectors : 0

Track 05
Filename : /Users/Desktop/Liliental - Liliental (1978) [FLAC]/05 - Gebremster Schaum.flac

Track gain : -4.17 dB
Peak : 0.988678
CRC32 hash (test run) : 996D3554
CRC32 hash : 996D3554
CRC32 hash (skip zero) : 7D682E28
AccurateRip signature : 6B064BF7
->Accurately ripped! (confidence 1)
Statistics
Read error : 0
Skipped (treated as error) : 0
Edge jitter error (maybe fixed) : 0
Atom jitter error (maybe fixed) : 0
Drift error (maybe fixed) : 0
Dropped bytes error (maybe fixed) : 0
Duplicated bytes error (maybe fixed) : 0
Inconsistency in error sectors : 0

Track 06
Filename : /Users/Desktop/Liliental - Liliental (1978) [FLAC]/06 - Nachsaison.flac

Track gain : -5.36 dB
Peak : 0.988678
CRC32 hash (test run) : 92E855F8
CRC32 hash : 92E855F8
CRC32 hash (skip zero) : 8928928D
AccurateRip signature : C333347B
->Accurately ripped! (confidence 1)
Statistics
Read error : 0
Skipped (treated as error) : 0
Edge jitter error (maybe fixed) : 0
Atom jitter error (maybe fixed) : 0
Drift error (maybe fixed) : 0
Dropped bytes error (maybe fixed) : 0
Duplicated bytes error (maybe fixed) : 0
Inconsistency in error sectors : 0

No errors occurred

End of status report





ADVERTISING » High Speed Download « ADVERTISING




Posted By: DarkMagus Date: 19 Mar 2022 12:28:46
You leave me speechless...hats off.
Posted By: cletonico Date: 19 Mar 2022 13:00:33
didn't know this even existed!
Thank you!!

P.S. And Thanks for The Mirror :-D
Recent searches: