Loading...
Done
Home > Music
John Lennon-Wonsaponatime
Posted By : SteveJobs | Date : 01 Mar 2022 11:25:34 | Comments : 10
John Lennon - Wonsaponatime

John Lennon - Wonsaponatime (1998)
XLD Rip | Flac (Tracks) Cue, Log, m3u, md5, st5, ffp | complete Artwork 300 dpi | 496 MB
Rock | 1998 | Capitol | 7243 4 97639 2 0

Wonsaponatime is a collection of home demos, alternative studio outtakes and unreleased material recorded by John Lennon and serves as a one disc distillation of the highlights from the simultaneously released John Lennon Anthology box set.

Released in 1998, many of Wonsaponatime's tracks have been edited down from their versions on John Lennon Anthology.
Wonsaponatime failed to reach the US charts but peaked at #76 in the UK.


John Lennon - Wonsaponatime

Tracklisting

01 - I'm Losing You
02 - Working Class Hero
03 - God
04 - How Do You Sleep?
05 - Imagine (Take 1)
06 - Baby Please Don't Go
07 - Oh My Love
08 - God Save Oz
09 - I Found Out
10 - Woman Is The Nigger Of The World [Live]
11 - A Kiss Is Just A Kiss (As Time Goes By)
12 - Be-Bop-A-Lula
13 - Rip It Up/Ready Teddy
14 - What You Got
15 - Nobody Loves You (When You're Down And Out)
16 - I Don't Wanna Face It
17 - Real Love
18 - Only You
19 - Grow Old With Me
20 - Sean's "In The Sky"
21 - Serve Yourself



XLD Log
X Lossless Decoder version 20100218 (116.4)

XLD extraction logfile from 2022-02-28 10:17:00 +0100

John Lennon / Wonsaponatime

Used drive : PIONEER DVD-RW DVR-K06A (revision Q631)

Use cdparanoia mode : YES (CDParanoia III 10.2 engine)
Disable audio cache : OK for the drive with cache less than 2750KB
Make use of C2 pointers : NO
Read offset correction : 48
Max retry count : 100

TOC of the extracted CD
Track | Start | Length | Start sector | End sector
---------------------------------------------------------
1 | 00:00:00 | 03:56:50 | 0 | 17749
2 | 03:56:50 | 03:58:60 | 17750 | 35659
3 | 07:55:35 | 03:15:60 | 35660 | 50344
4 | 11:11:20 | 05:01:37 | 50345 | 72956
5 | 16:12:57 | 03:05:53 | 72957 | 86884
6 | 19:18:35 | 04:05:12 | 86885 | 105271
7 | 23:23:47 | 02:44:25 | 105272 | 117596
8 | 26:07:72 | 03:22:53 | 117597 | 132799
9 | 29:30:50 | 03:48:50 | 132800 | 149949
10 | 33:19:25 | 05:17:35 | 149950 | 173759
11 | 38:36:60 | 00:12:05 | 173760 | 174664
12 | 38:48:65 | 02:40:65 | 174665 | 186729
13 | 41:29:55 | 02:26:27 | 186730 | 197706
14 | 43:56:07 | 01:15:60 | 197707 | 203391
15 | 45:11:67 | 05:03:20 | 203392 | 226136
16 | 50:15:12 | 03:32:70 | 226137 | 242106
17 | 53:48:07 | 04:08:03 | 242107 | 260709
18 | 57:56:10 | 03:25:42 | 260710 | 276126
19 | 61:21:52 | 03:18:68 | 276127 | 291044
20 | 64:40:45 | 01:26:07 | 291045 | 297501
21 | 66:06:52 | 03:49:03 | 297502 | 314679

List of alternate offset correction values
# | Absolute | Relative | Confidence
------------------------------------------
1 | -555 | -603 | 12
2 | -162 | -210 | 5

Track 01
Filename : /Users/Desktop/John Lennon - Wonsaponatime (1998) [FLAC]/01 - I'm Losing You.flac

Pre-gap length : 00:02:00

CRC32 hash (test run) : AC31A4B6
CRC32 hash : AC31A4B6
CRC32 hash (skip zero) : 16816643
AccurateRip signature : D3A50DA8
->Accurately ripped! (confidence 25)
Statistics
Read error : 0
Skipped (treated as error) : 0
Edge jitter error (maybe fixed) : 0
Atom jitter error (maybe fixed) : 0
Drift error (maybe fixed) : 0
Dropped bytes error (maybe fixed) : 0
Duplicated bytes error (maybe fixed) : 0
Inconsistency in error sectors : 0

Track 02
Filename : /Users/Desktop/John Lennon - Wonsaponatime (1998) [FLAC]/02 - Working Class Hero.flac

CRC32 hash (test run) : A6EDF14B
CRC32 hash : A6EDF14B
CRC32 hash (skip zero) : 410A1189
AccurateRip signature : 7800BFEF
->Accurately ripped! (confidence 25)
Statistics
Read error : 0
Skipped (treated as error) : 0
Edge jitter error (maybe fixed) : 0
Atom jitter error (maybe fixed) : 0
Drift error (maybe fixed) : 0
Dropped bytes error (maybe fixed) : 0
Duplicated bytes error (maybe fixed) : 0
Inconsistency in error sectors : 0

Track 03
Filename : /Users/Desktop/John Lennon - Wonsaponatime (1998) [FLAC]/03 - God.flac

CRC32 hash (test run) : 4A4538E5
CRC32 hash : 4A4538E5
CRC32 hash (skip zero) : BD793863
AccurateRip signature : F2354F5A
->Accurately ripped! (confidence 25)
Statistics
Read error : 0
Skipped (treated as error) : 0
Edge jitter error (maybe fixed) : 0
Atom jitter error (maybe fixed) : 0
Drift error (maybe fixed) : 0
Dropped bytes error (maybe fixed) : 0
Duplicated bytes error (maybe fixed) : 0
Inconsistency in error sectors : 0

Track 04
Filename : /Users/Desktop/John Lennon - Wonsaponatime (1998) [FLAC]/04 - How Do You Sleep?.flac

CRC32 hash (test run) : CDE2A616
CRC32 hash : CDE2A616
CRC32 hash (skip zero) : A850210E
AccurateRip signature : 3AA959B1
->Accurately ripped! (confidence 25)
Statistics
Read error : 0
Skipped (treated as error) : 0
Edge jitter error (maybe fixed) : 0
Atom jitter error (maybe fixed) : 0
Drift error (maybe fixed) : 0
Dropped bytes error (maybe fixed) : 0
Duplicated bytes error (maybe fixed) : 0
Inconsistency in error sectors : 0

Track 05
Filename : /Users/Desktop/John Lennon - Wonsaponatime (1998) [FLAC]/05 - Imagine (Take 1).flac

CRC32 hash (test run) : A9EBBA0E
CRC32 hash : A9EBBA0E
CRC32 hash (skip zero) : 94460904
AccurateRip signature : 95F384BC
->Accurately ripped! (confidence 25)
Statistics
Read error : 0
Skipped (treated as error) : 0
Edge jitter error (maybe fixed) : 1
Atom jitter error (maybe fixed) : 0
Drift error (maybe fixed) : 0
Dropped bytes error (maybe fixed) : 1
Duplicated bytes error (maybe fixed) : 1
Inconsistency in error sectors : 0

Track 06
Filename : /Users/Desktop/John Lennon - Wonsaponatime (1998) [FLAC]/06 - Baby Please Don't Go.flac

CRC32 hash (test run) : 507FCB3B
CRC32 hash : 507FCB3B
CRC32 hash (skip zero) : A14E5588
AccurateRip signature : 39D1A6F2
->Accurately ripped! (confidence 25)
Statistics
Read error : 0
Skipped (treated as error) : 0
Edge jitter error (maybe fixed) : 0
Atom jitter error (maybe fixed) : 0
Drift error (maybe fixed) : 0
Dropped bytes error (maybe fixed) : 0
Duplicated bytes error (maybe fixed) : 0
Inconsistency in error sectors : 0

Track 07
Filename : /Users/Desktop/John Lennon - Wonsaponatime (1998) [FLAC]/07 - Oh My Love.flac

Pre-gap length : 00:01:35

CRC32 hash (test run) : 06A1A362
CRC32 hash : 06A1A362
CRC32 hash (skip zero) : 79148E46
AccurateRip signature : 4DAD8559
->Accurately ripped! (confidence 24)
Statistics
Read error : 0
Skipped (treated as error) : 0
Edge jitter error (maybe fixed) : 0
Atom jitter error (maybe fixed) : 0
Drift error (maybe fixed) : 0
Dropped bytes error (maybe fixed) : 0
Duplicated bytes error (maybe fixed) : 0
Inconsistency in error sectors : 0

Track 08
Filename : /Users/Desktop/John Lennon - Wonsaponatime (1998) [FLAC]/08 - God Save Oz.flac

CRC32 hash (test run) : 9C2FCE88
CRC32 hash : 9C2FCE88
CRC32 hash (skip zero) : 4E5D51DE
AccurateRip signature : 04345694
->Accurately ripped! (confidence 24)
Statistics
Read error : 0
Skipped (treated as error) : 0
Edge jitter error (maybe fixed) : 1
Atom jitter error (maybe fixed) : 0
Drift error (maybe fixed) : 0
Dropped bytes error (maybe fixed) : 1
Duplicated bytes error (maybe fixed) : 0
Inconsistency in error sectors : 0

Track 09
Filename : /Users/Desktop/John Lennon - Wonsaponatime (1998) [FLAC]/09 - I Found Out.flac

Pre-gap length : 00:01:33

CRC32 hash (test run) : 487F53B5
CRC32 hash : 487F53B5
CRC32 hash (skip zero) : 564B8486
AccurateRip signature : 97D772B5
->Accurately ripped! (confidence 24)
Statistics
Read error : 0
Skipped (treated as error) : 0
Edge jitter error (maybe fixed) : 1
Atom jitter error (maybe fixed) : 0
Drift error (maybe fixed) : 0
Dropped bytes error (maybe fixed) : 1
Duplicated bytes error (maybe fixed) : 1
Inconsistency in error sectors : 0

Track 10
Filename : /Users/Desktop/John Lennon - Wonsaponatime (1998) [FLAC]/10 - Woman Is The Nigger Of The World [Live].flac

Pre-gap length : 00:01:28

CRC32 hash (test run) : ADB978D5
CRC32 hash : ADB978D5
CRC32 hash (skip zero) : 114475D6
AccurateRip signature : 07327904
->Accurately ripped! (confidence 24)
Statistics
Read error : 0
Skipped (treated as error) : 0
Edge jitter error (maybe fixed) : 0
Atom jitter error (maybe fixed) : 0
Drift error (maybe fixed) : 0
Dropped bytes error (maybe fixed) : 0
Duplicated bytes error (maybe fixed) : 0
Inconsistency in error sectors : 0

Track 11
Filename : /Users/Desktop/John Lennon - Wonsaponatime (1998) [FLAC]/11 - A Kiss Is Just A Kiss (As Time Goes By).flac

CRC32 hash (test run) : FE4F95F1
CRC32 hash : FE4F95F1
CRC32 hash (skip zero) : EF49F21D
AccurateRip signature : 0B46C8B0
->Accurately ripped! (confidence 24)
Statistics
Read error : 0
Skipped (treated as error) : 0
Edge jitter error (maybe fixed) : 0
Atom jitter error (maybe fixed) : 0
Drift error (maybe fixed) : 0
Dropped bytes error (maybe fixed) : 0
Duplicated bytes error (maybe fixed) : 0
Inconsistency in error sectors : 0

Track 12
Filename : /Users/Desktop/John Lennon - Wonsaponatime (1998) [FLAC]/12 - Be-Bop-A-Lula.flac

CRC32 hash (test run) : 4DDC47FA
CRC32 hash : 4DDC47FA
CRC32 hash (skip zero) : 13F75046
AccurateRip signature : 7F6B450B
->Accurately ripped! (confidence 24)
Statistics
Read error : 0
Skipped (treated as error) : 0
Edge jitter error (maybe fixed) : 1
Atom jitter error (maybe fixed) : 0
Drift error (maybe fixed) : 0
Dropped bytes error (maybe fixed) : 0
Duplicated bytes error (maybe fixed) : 1
Inconsistency in error sectors : 0

Track 13
Filename : /Users/Desktop/John Lennon - Wonsaponatime (1998) [FLAC]/13 - Rip It Up/Ready Teddy.flac

CRC32 hash (test run) : B9860C84
CRC32 hash : B9860C84
CRC32 hash (skip zero) : BAC3D7CD
AccurateRip signature : 2D433D14
->Accurately ripped! (confidence 24)
Statistics
Read error : 0
Skipped (treated as error) : 0
Edge jitter error (maybe fixed) : 2
Atom jitter error (maybe fixed) : 0
Drift error (maybe fixed) : 0
Dropped bytes error (maybe fixed) : 2
Duplicated bytes error (maybe fixed) : 2
Inconsistency in error sectors : 0

Track 14
Filename : /Users/Desktop/John Lennon - Wonsaponatime (1998) [FLAC]/14 - What You Got.flac

CRC32 hash (test run) : 04EBBDC7
CRC32 hash : 04EBBDC7
CRC32 hash (skip zero) : 1E8C6657
AccurateRip signature : D820C1C4
->Accurately ripped! (confidence 24)
Statistics
Read error : 0
Skipped (treated as error) : 0
Edge jitter error (maybe fixed) : 0
Atom jitter error (maybe fixed) : 0
Drift error (maybe fixed) : 0
Dropped bytes error (maybe fixed) : 0
Duplicated bytes error (maybe fixed) : 0
Inconsistency in error sectors : 0

Track 15
Filename : /Users/Desktop/John Lennon - Wonsaponatime (1998) [FLAC]/15 - Nobody Loves You (When You're Down And Out).flac

CRC32 hash (test run) : 7443D053
CRC32 hash : 7443D053
CRC32 hash (skip zero) : 9389E845
AccurateRip signature : 6A7D4CF6
->Accurately ripped! (confidence 24)
Statistics
Read error : 0
Skipped (treated as error) : 0
Edge jitter error (maybe fixed) : 1
Atom jitter error (maybe fixed) : 0
Drift error (maybe fixed) : 0
Dropped bytes error (maybe fixed) : 1
Duplicated bytes error (maybe fixed) : 0
Inconsistency in error sectors : 0

Track 16
Filename : /Users/Desktop/John Lennon - Wonsaponatime (1998) [FLAC]/16 - I Don't Wanna Face It.flac

CRC32 hash (test run) : 6050C82F
CRC32 hash : 6050C82F
CRC32 hash (skip zero) : 6DC75B9C
AccurateRip signature : BAC1EA2B
->Accurately ripped! (confidence 25)
Statistics
Read error : 0
Skipped (treated as error) : 0
Edge jitter error (maybe fixed) : 0
Atom jitter error (maybe fixed) : 0
Drift error (maybe fixed) : 0
Dropped bytes error (maybe fixed) : 0
Duplicated bytes error (maybe fixed) : 0
Inconsistency in error sectors : 0

Track 17
Filename : /Users/Desktop/John Lennon - Wonsaponatime (1998) [FLAC]/17 - Real Love.flac

Pre-gap length : 00:01:25

CRC32 hash (test run) : EDBC4CBC
CRC32 hash : EDBC4CBC
CRC32 hash (skip zero) : 455033EC
AccurateRip signature : 12969AD8
->Accurately ripped! (confidence 24)
Statistics
Read error : 0
Skipped (treated as error) : 0
Edge jitter error (maybe fixed) : 1
Atom jitter error (maybe fixed) : 0
Drift error (maybe fixed) : 0
Dropped bytes error (maybe fixed) : 1
Duplicated bytes error (maybe fixed) : 1
Inconsistency in error sectors : 0

Track 18
Filename : /Users/Desktop/John Lennon - Wonsaponatime (1998) [FLAC]/18 - Only You.flac

CRC32 hash (test run) : F04F5E9E
CRC32 hash : F04F5E9E
CRC32 hash (skip zero) : 824F040A
AccurateRip signature : F61EC00A
->Accurately ripped! (confidence 24)
Statistics
Read error : 0
Skipped (treated as error) : 0
Edge jitter error (maybe fixed) : 2
Atom jitter error (maybe fixed) : 2
Drift error (maybe fixed) : 0
Dropped bytes error (maybe fixed) : 1
Duplicated bytes error (maybe fixed) : 1
Inconsistency in error sectors : 0

Track 19
Filename : /Users/Desktop/John Lennon - Wonsaponatime (1998) [FLAC]/19 - Grow Old With Me.flac

CRC32 hash (test run) : 52E606B7
CRC32 hash : 52E606B7
CRC32 hash (skip zero) : A2E41C6D
AccurateRip signature : 9528FA65
->Accurately ripped! (confidence 24)
Statistics
Read error : 0
Skipped (treated as error) : 0
Edge jitter error (maybe fixed) : 1
Atom jitter error (maybe fixed) : 0
Drift error (maybe fixed) : 0
Dropped bytes error (maybe fixed) : 1
Duplicated bytes error (maybe fixed) : 1
Inconsistency in error sectors : 0

Track 20
Filename : /Users/Desktop/John Lennon - Wonsaponatime (1998) [FLAC]/20 - Sean's "In The Sky".flac

CRC32 hash (test run) : 6E79D8E9
CRC32 hash : 6E79D8E9
CRC32 hash (skip zero) : 57178A59
AccurateRip signature : ED6F54F0
->Accurately ripped! (confidence 24)
Statistics
Read error : 0
Skipped (treated as error) : 0
Edge jitter error (maybe fixed) : 0
Atom jitter error (maybe fixed) : 0
Drift error (maybe fixed) : 0
Dropped bytes error (maybe fixed) : 0
Duplicated bytes error (maybe fixed) : 0
Inconsistency in error sectors : 0

Track 21
Filename : /Users/Desktop/John Lennon - Wonsaponatime (1998) [FLAC]/21 - Serve Yourself.flac

Pre-gap length : 00:03:25

CRC32 hash (test run) : 1C2B272B
CRC32 hash : 1C2B272B
CRC32 hash (skip zero) : 1018E3F6
AccurateRip signature : 53E7DD2F
->Accurately ripped! (confidence 21)
Statistics
Read error : 0
Skipped (treated as error) : 0
Edge jitter error (maybe fixed) : 0
Atom jitter error (maybe fixed) : 0
Drift error (maybe fixed) : 0
Dropped bytes error (maybe fixed) : 0
Duplicated bytes error (maybe fixed) : 0
Inconsistency in error sectors : 0

No errors occurred

End of status report






pass: Lennon


ADVERTISING » Download fast « ADVERTISING
Posted By: gonzalo76 Date: 01 Mar 2022 12:28:36
I have the Anthology box set but not this one.
Maybe this CD is a "best of" of the box set Anthology ?
Thank you very kindly !
Posted By: wersollsschonsein Date: 01 Mar 2022 13:15:47
Cheers from Ireland.
Posted By: SteveJobs Date: 01 Mar 2022 13:57:27
Yes, this is a "best of" of the Anthology box set, gonzalo76.
Posted By: gonzalo76 Date: 01 Mar 2022 16:26:55
Thank you Steve.

Be careful with the track titles, not everybody uses a Mac, I use Window$ :)))

04 - How Do You Sleep?.flac
13 - Rip It Up/Ready Teddy.flac
20 - Sean's "In The Sky".flac

WinRAR renamed these tracks automatically when extracted the files. Anyway, I renamed them again like I wanted. Obviously, I had to modify the CUE and M3U files with the new track titles.

Thank you kindly once again.
Posted By: SteveJobs Date: 01 Mar 2022 18:05:15
I'm sorry gonzalo76. Usually I take care of these things as I know of these Win/Mac incompatibilities. It seems that yesterday I wasn't concentrated enough and forgot about it.
There is no problem with these files; you just have to do like gonzalo76 and rename them manually after extracting. If you want to use the .cue and .m3u, you'll have to open them with a text editor and rename the files in there.
The flacs are all right and will play fine.

Thanks again gonzalo76 for your help. Next time I'll take more care with the filenames.

Enjoy the Lennon!
Posted By: tbavax Date: 02 Mar 2022 08:10:37
thanks Steve!!!
Posted By: wersollsschonsein Date: 02 Mar 2022 20:36:36
Part 3 is not available!
Posted By: SteveJobs Date: 02 Mar 2022 23:53:15
Part 3 at RS works - I don't know why the MU links are gone so fast.
Posted By: Noiseo Date: 09 Mar 2022 19:51:34
Big thanks SteveJobs, i love the very good quality !
Posted By: walrus64 Date: 27 Mar 2022 07:43:50
Thank you SteveJobs! :)
Recent searches: