Loading...
Done
Home > Music
John Lennon - Testimony
Posted By : SteveJobs | Date : 01 Mar 2022 15:10:26 | Comments : 3
John Lennon - Testimony

John Lennon - Testimony (1995)
XLD Rip | Flac (Tracks) Cue, Log, m3u, md5, st5, ffp | complete Artwork 300 dpi | 295 MB
Bootleg | 1995 | Thunderbolt | CDTB 095

The album features one of the last interviews given by John Lennon and Yoko Ono. It was recorded at the offices of Geffen Records in New York City as part of the promotion for the Double Fantasy album. The Interviewer is Bob Miles ans the interview was originally intends for US radio broadcast. Recorded on December 8th, 1980.


John Lennon - Testimony

Tracklisting

01 - Interview With John Lennon
02 - Interview With John Lennon
03 - Interview With John Lennon
04 - Interview With John Lennon
05 - Interview With John Lennon
06 - Interview With John Lennon
07 - Interview With John Lennon
08 - Interview With John Lennon
09 - Interview With John Lennon
10 - Interview With John Lennon
11 - Interview With John Lennon
12 - Interview With John Lennon
13 - Interview With John Lennon
14 - Interview With John Lennon



XLD Log
X Lossless Decoder version 20100218 (116.4)

XLD extraction logfile from 2022-02-28 21:21:12 +0100

John Lennon / John Lennon Testimony

Used drive : PIONEER DVD-RW DVR-K06A (revision Q631)

Use cdparanoia mode : YES (CDParanoia III 10.2 engine)
Disable audio cache : OK for the drive with cache less than 2750KB
Make use of C2 pointers : NO
Read offset correction : 48
Max retry count : 100

TOC of the extracted CD
Track | Start | Length | Start sector | End sector
---------------------------------------------------------
1 | 00:00:12 | 09:41:73 | 12 | 43659
2 | 09:42:10 | 10:00:20 | 43660 | 88679
3 | 19:42:30 | 01:32:37 | 88680 | 95616
4 | 21:14:67 | 09:56:48 | 95617 | 140364
5 | 31:11:40 | 04:06:52 | 140365 | 158866
6 | 35:18:17 | 14:59:35 | 158867 | 226326
7 | 50:17:52 | 02:23:10 | 226327 | 237061
8 | 52:40:62 | 01:41:30 | 237062 | 244666
9 | 54:22:17 | 02:35:60 | 244667 | 256351
10 | 56:58:02 | 09:04:58 | 256352 | 297209
11 | 66:02:60 | 01:27:25 | 297210 | 303759
12 | 67:30:10 | 03:34:35 | 303760 | 319844
13 | 71:04:45 | 01:56:30 | 319845 | 328574
14 | 73:01:00 | 00:51:30 | 328575 | 332429

List of alternate offset correction values
# | Absolute | Relative | Confidence
------------------------------------------
1 | 705 | 657 | 5

Track 01
Filename : /Users/Desktop/John Lennon - Testimony (1995) [FLAC]/01 - Interview With John Lennon.flac

Pre-gap length : 00:02:12

CRC32 hash (test run) : E2ECDCA9
CRC32 hash : E2ECDCA9
CRC32 hash (skip zero) : F1E30A62
AccurateRip signature : 78E7F197
->Rip may not be accurate.
Statistics
Read error : 0
Skipped (treated as error) : 0
Edge jitter error (maybe fixed) : 0
Atom jitter error (maybe fixed) : 0
Drift error (maybe fixed) : 0
Dropped bytes error (maybe fixed) : 0
Duplicated bytes error (maybe fixed) : 0
Inconsistency in error sectors : 0

Track 02
Filename : /Users/Desktop/John Lennon - Testimony (1995) [FLAC]/02 - Interview With John Lennon.flac

CRC32 hash (test run) : 1228422D
CRC32 hash : 1228422D
CRC32 hash (skip zero) : 58D80EFD
AccurateRip signature : B80AC649
->Accurately ripped! (confidence 5)
(matched with the different offset correction value;
calculated using an additional offset of 657;
the signature after correction is: 96D93710)
Statistics
Read error : 0
Skipped (treated as error) : 0
Edge jitter error (maybe fixed) : 0
Atom jitter error (maybe fixed) : 0
Drift error (maybe fixed) : 0
Dropped bytes error (maybe fixed) : 0
Duplicated bytes error (maybe fixed) : 0
Inconsistency in error sectors : 0

Track 03
Filename : /Users/Desktop/John Lennon - Testimony (1995) [FLAC]/03 - Interview With John Lennon.flac

CRC32 hash (test run) : 5E64B371
CRC32 hash : 5E64B371
CRC32 hash (skip zero) : 9D4DFABE
AccurateRip signature : 6E1D3040
->Accurately ripped! (confidence 5)
(matched with the different offset correction value;
calculated using an additional offset of 657;
the signature after correction is: C5E471C8)
Statistics
Read error : 0
Skipped (treated as error) : 0
Edge jitter error (maybe fixed) : 0
Atom jitter error (maybe fixed) : 0
Drift error (maybe fixed) : 0
Dropped bytes error (maybe fixed) : 0
Duplicated bytes error (maybe fixed) : 0
Inconsistency in error sectors : 0

Track 04
Filename : /Users/Desktop/John Lennon - Testimony (1995) [FLAC]/04 - Interview With John Lennon.flac

CRC32 hash (test run) : A1896FE7
CRC32 hash : A1896FE7
CRC32 hash (skip zero) : F3CFE054
AccurateRip signature : 9E0A3768
->Accurately ripped! (confidence 5)
(matched with the different offset correction value;
calculated using an additional offset of 657;
the signature after correction is: ABB4376B)
Statistics
Read error : 0
Skipped (treated as error) : 0
Edge jitter error (maybe fixed) : 0
Atom jitter error (maybe fixed) : 0
Drift error (maybe fixed) : 0
Dropped bytes error (maybe fixed) : 0
Duplicated bytes error (maybe fixed) : 0
Inconsistency in error sectors : 0

Track 05
Filename : /Users/Desktop/John Lennon - Testimony (1995) [FLAC]/05 - Interview With John Lennon.flac

CRC32 hash (test run) : 609EEACE
CRC32 hash : 609EEACE
CRC32 hash (skip zero) : 2B91918A
AccurateRip signature : 76EE30D3
->Accurately ripped! (confidence 5)
(matched with the different offset correction value;
calculated using an additional offset of 657;
the signature after correction is: FDF6FFFB)
Statistics
Read error : 0
Skipped (treated as error) : 0
Edge jitter error (maybe fixed) : 0
Atom jitter error (maybe fixed) : 0
Drift error (maybe fixed) : 0
Dropped bytes error (maybe fixed) : 0
Duplicated bytes error (maybe fixed) : 0
Inconsistency in error sectors : 0

Track 06
Filename : /Users/Desktop/John Lennon - Testimony (1995) [FLAC]/06 - Interview With John Lennon.flac

CRC32 hash (test run) : 3123D5F8
CRC32 hash : 3123D5F8
CRC32 hash (skip zero) : 612BE232
AccurateRip signature : BBADD142
->Accurately ripped! (confidence 5)
(matched with the different offset correction value;
calculated using an additional offset of 657;
the signature after correction is: 46FD30CF)
Statistics
Read error : 0
Skipped (treated as error) : 0
Edge jitter error (maybe fixed) : 0
Atom jitter error (maybe fixed) : 0
Drift error (maybe fixed) : 0
Dropped bytes error (maybe fixed) : 0
Duplicated bytes error (maybe fixed) : 0
Inconsistency in error sectors : 0

Track 07
Filename : /Users/Desktop/John Lennon - Testimony (1995) [FLAC]/07 - Interview With John Lennon.flac

CRC32 hash (test run) : 46633EC3
CRC32 hash : 46633EC3
CRC32 hash (skip zero) : 929508B3
AccurateRip signature : 35D182D7
->Accurately ripped! (confidence 5)
(matched with the different offset correction value;
calculated using an additional offset of 657;
the signature after correction is: 9465C0F8)
Statistics
Read error : 0
Skipped (treated as error) : 0
Edge jitter error (maybe fixed) : 0
Atom jitter error (maybe fixed) : 0
Drift error (maybe fixed) : 0
Dropped bytes error (maybe fixed) : 0
Duplicated bytes error (maybe fixed) : 0
Inconsistency in error sectors : 0

Track 08
Filename : /Users/Desktop/John Lennon - Testimony (1995) [FLAC]/08 - Interview With John Lennon.flac

CRC32 hash (test run) : 3C1CB4D7
CRC32 hash : 3C1CB4D7
CRC32 hash (skip zero) : 76FB545D
AccurateRip signature : 32C91C6F
->Accurately ripped! (confidence 5)
(matched with the different offset correction value;
calculated using an additional offset of 657;
the signature after correction is: 6D55AF26)
Statistics
Read error : 0
Skipped (treated as error) : 0
Edge jitter error (maybe fixed) : 0
Atom jitter error (maybe fixed) : 0
Drift error (maybe fixed) : 0
Dropped bytes error (maybe fixed) : 0
Duplicated bytes error (maybe fixed) : 0
Inconsistency in error sectors : 0

Track 09
Filename : /Users/Desktop/John Lennon - Testimony (1995) [FLAC]/09 - Interview With John Lennon.flac

CRC32 hash (test run) : CD56B41C
CRC32 hash : CD56B41C
CRC32 hash (skip zero) : 52257C49
AccurateRip signature : 63F09F23
->Accurately ripped! (confidence 5)
(matched with the different offset correction value;
calculated using an additional offset of 657;
the signature after correction is: 3F841F3A)
Statistics
Read error : 0
Skipped (treated as error) : 0
Edge jitter error (maybe fixed) : 0
Atom jitter error (maybe fixed) : 0
Drift error (maybe fixed) : 0
Dropped bytes error (maybe fixed) : 0
Duplicated bytes error (maybe fixed) : 0
Inconsistency in error sectors : 0

Track 10
Filename : /Users/Desktop/John Lennon - Testimony (1995) [FLAC]/10 - Interview With John Lennon.flac

CRC32 hash (test run) : 5B7CCBEC
CRC32 hash : 5B7CCBEC
CRC32 hash (skip zero) : 9E049E2F
AccurateRip signature : 0049E57B
->Accurately ripped! (confidence 5)
(matched with the different offset correction value;
calculated using an additional offset of 657;
the signature after correction is: 4FFAB18E)
Statistics
Read error : 0
Skipped (treated as error) : 0
Edge jitter error (maybe fixed) : 0
Atom jitter error (maybe fixed) : 0
Drift error (maybe fixed) : 0
Dropped bytes error (maybe fixed) : 0
Duplicated bytes error (maybe fixed) : 0
Inconsistency in error sectors : 0

Track 11
Filename : /Users/Desktop/John Lennon - Testimony (1995) [FLAC]/11 - Interview With John Lennon.flac

CRC32 hash (test run) : DF15DF74
CRC32 hash : DF15DF74
CRC32 hash (skip zero) : CF580ECA
AccurateRip signature : 0BA83ACF
->Accurately ripped! (confidence 5)
(matched with the different offset correction value;
calculated using an additional offset of 657;
the signature after correction is: B32DCA91)
Statistics
Read error : 0
Skipped (treated as error) : 0
Edge jitter error (maybe fixed) : 0
Atom jitter error (maybe fixed) : 0
Drift error (maybe fixed) : 0
Dropped bytes error (maybe fixed) : 0
Duplicated bytes error (maybe fixed) : 0
Inconsistency in error sectors : 0

Track 12
Filename : /Users/Desktop/John Lennon - Testimony (1995) [FLAC]/12 - Interview With John Lennon.flac

CRC32 hash (test run) : DAFB497E
CRC32 hash : DAFB497E
CRC32 hash (skip zero) : 9ECEBB46
AccurateRip signature : 4280798F
->Accurately ripped! (confidence 5)
(matched with the different offset correction value;
calculated using an additional offset of 657;
the signature after correction is: 736AABB1)
Statistics
Read error : 0
Skipped (treated as error) : 0
Edge jitter error (maybe fixed) : 0
Atom jitter error (maybe fixed) : 0
Drift error (maybe fixed) : 0
Dropped bytes error (maybe fixed) : 0
Duplicated bytes error (maybe fixed) : 0
Inconsistency in error sectors : 0

Track 13
Filename : /Users/Desktop/John Lennon - Testimony (1995) [FLAC]/13 - Interview With John Lennon.flac

CRC32 hash (test run) : B31AB577
CRC32 hash : B31AB577
CRC32 hash (skip zero) : 83F4A7C5
AccurateRip signature : 24F09C7A
->Accurately ripped! (confidence 5)
(matched with the different offset correction value;
calculated using an additional offset of 657;
the signature after correction is: 029BB992)
Statistics
Read error : 0
Skipped (treated as error) : 0
Edge jitter error (maybe fixed) : 0
Atom jitter error (maybe fixed) : 0
Drift error (maybe fixed) : 0
Dropped bytes error (maybe fixed) : 0
Duplicated bytes error (maybe fixed) : 0
Inconsistency in error sectors : 0

Track 14
Filename : /Users/Desktop/John Lennon - Testimony (1995) [FLAC]/14 - Interview With John Lennon.flac

CRC32 hash (test run) : 4B444434
CRC32 hash : 4B444434
CRC32 hash (skip zero) : 7803CBAF
AccurateRip signature : 0A859550
->Accurately ripped! (confidence 5)
(matched with the different offset correction value;
calculated using an additional offset of 657;
the signature after correction is: BD85533D)
Statistics
Read error : 0
Skipped (treated as error) : 0
Edge jitter error (maybe fixed) : 0
Atom jitter error (maybe fixed) : 0
Drift error (maybe fixed) : 0
Dropped bytes error (maybe fixed) : 0
Duplicated bytes error (maybe fixed) : 0
Inconsistency in error sectors : 0

No errors occurred

End of status report





ADVERTISING » Download fast « ADVERTISING
Posted By: elsewhere Date: 01 Mar 2022 16:11:15
Thank you very much!
Posted By: wersollsschonsein Date: 01 Mar 2022 17:53:18
Cheers from Ireland.
Posted By: rg1960 Date: 02 Mar 2022 16:10:18
This will be sad to listen to, but I will!
Thank you for posting it, SteveJobs!

rg1960
Recent searches:
DONATE AVAXHOME:

Donate please!