Loading...
Done
Home > Music
Jimi Hendrix – Valleys Of Neptune - Target exclusive
Posted By : SteveJobs | Date : 19 Mar 2022 11:13:44 | Comments : 10
Hendrix

Jimi Hendrix – Valleys Of Neptune (2010) – Target exclusive with 2 bonus tracks
XLD Rip | Flac (Tracks) Cue, Log, m3u, md5, st5, ffp | complete Artwork 300 dpi | 644 MB
Rock | 2010 | Experience Hendrix/Legacy | 88697 64872 2

Target Exclusive CD featuring 2 previously unreleased bonus tracks


The completely unreleased studio album with 12 previously unreleased studio recordings and over 60 minutes of unheard Jimi Hendrix! Ten recordings were made between February and May 1969 as The Jimi Hendrix Experience set out to create their sequel to the groundbreaking 1968 double album Electric Ladyland.
It features “Valleys Of Neptune,” one of the most sought after of all of Hendrix’s commercially unavailable recordings and also includes exciting 1969 arrangements of classic signature songs “Red House,” “Fire” and “Stone Free” and unheard studio versions of Hendrix’s inspired interpretations of “Bleeding Heart” by Elmore James and Cream’s “Sunshine Of Your Love”. The cover art is by Hendrix himself.

Stone Free: The original 1966 recording by the original Jimi Hendrix Experience is best known as one of Jimi’s signature songs. The 2000 Jimi Hendrix Experience Box Set featured a new remake by the original group. Hendrix, Mitch Mitchell and Billy Cox recorded this version in May 1969. It is a different recording entirely.

Valleys Of Neptune: This track was recorded in September 1969 and May 1970. This full band version has never been released. An extract of a demo Hendrix made of this song, featuring just Mitchell on drums and percussionist Juma Sultan, was part of the short-lived album Lifelines that was in the marketplace between 1990 to 1992.

Bleeding Heart: This cover of the classic blues song by Elmore James is different entirely from the versions featured on South Saturn Delta and originally on War Heroes. This recording has never been issued and features Jimi, Billy Cox and drummer Rocky Isaac. It was recorded in April 1969.

Hear My Train A Comin’: This electric, full band version is different from the famous 12-string acoustic version that was featured in the 1973 documentary Jimi Hendrix and subsequently on the album Jimi Hendrix: Blues.

Mr. Bad Luck: Like “Valleys Of Neptune”, a different version of this song was part of Lifelines in 1990. Jimi would later develop this song as “Look Over Yonder” that was issued as part of South Saturn Delta.

Sunshine Of Your Love: A stage favorite for the group during the 1969 period which has never been released.

Lover Man: Jimi recorded many different arrangements of this song, including the versions on both the Jimi Hendrix Experience Box Set and South Saturn Delta. This is an entirely different recording made in February 1969.

Ships Passing Through The Night: A never-before-released track taken from the last recording session by the original Jimi Hendrix Experience on 4/14/69.

Fire/Red House: Both of these songs by the original Jimi Hendrix Experience were recorded at the same February 1969 session. They feature the expanded stage arrangements Jimi had developed and are not alternate takes of the original 1967 recordings.

Lullaby For The Summer/Crying Blue Rain These April 1969 recordings by the original Jimi Hendrix Experience have never been released.


Slow Version recorded Olympic Studios, February 14, 2022 - Hendrix/Redding/Mitchell

Trash Man recorded Olmstead Studios, New York, April 3, 2022 - Hendrix/Redding/Mitchell



Tracklisting
1. Stone Free
2. Valleys of Neptune
3. Bleeding Heart
4. Hear My Train A Comin'
5. Mr. Bad Luck
6. Sunshine of Your Love
7. Lover Man
8. Ships Passing Through the Night
9. Fire
10. Red House
11. Lullaby for the Summer
12. Crying Blue Rain
13. Slow Version
14. Trash Man


Personnel

Primary musicians

* Jimi Hendrix – guitar, lead vocals, production on all tracks except 5
* Noel Redding – bass on all tracks except 1, 2 and 3
* Mitch Mitchell – drums on all tracks except 3
* Billy Cox – bass on tracks 1, 2 and 3

Additional personnel

* Chas Chandler – production on track 5
* Eddie Kramer – posthumous production, mixing on track 11
* John McDermott – posthumous production
* Janie Hendrix – posthumous production

Additional musicians

* Rocki Dzidzornu – percussion on tracks 6 and 12
* Roger Chapman – backing vocals on track 1
* Andy Fairweather Low – backing vocals on track 1
* Juma Sultan – percussion on track 2
* Rocky Isaac – drums on track 3
* Chris Grimes – tambourine on track 3
* Al Marks – maracas on track 3


XLD Log
X Lossless Decoder version 20100302 (116.6)

XLD extraction logfile from 2022-03-17 13:14:33 +0100

Jimi Hendrix / Valleys Of Neptune

Used drive : PIONEER DVD-RW DVR-K06A (revision Q631)

Use cdparanoia mode : YES (CDParanoia III 10.2 engine)
Disable audio cache : OK for the drive with cache less than 2750KB
Make use of C2 pointers : NO
Read offset correction : 48
Max retry count : 100

TOC of the extracted CD
Track | Start | Length | Start sector | End sector
---------------------------------------------------------
1 | 00:00:00 | 03:46:62 | 0 | 17011
2 | 03:46:62 | 04:04:17 | 17012 | 35328
3 | 07:51:04 | 06:23:12 | 35329 | 64065
4 | 14:14:16 | 07:32:02 | 64066 | 97967
5 | 21:46:18 | 02:58:07 | 97968 | 111324
6 | 24:44:25 | 06:47:25 | 111325 | 141874
7 | 31:31:50 | 04:17:38 | 141875 | 161187
8 | 35:49:13 | 05:52:09 | 161188 | 187596
9 | 41:41:22 | 03:12:17 | 187597 | 202013
10 | 44:53:39 | 08:22:59 | 202014 | 239722
11 | 53:16:23 | 03:48:68 | 239723 | 256890
12 | 57:05:16 | 04:58:48 | 256891 | 279288
13 | 62:03:64 | 04:59:41 | 279289 | 301754
14 | 67:03:30 | 07:24:74 | 301755 | 335128

All Tracks
Album gain : -5.57 dB
Peak : 1.000000

Track 01
Filename : /Users/Desktop/Jimi Hendrix - Valleys Of Neptune (2010) [FLAC]/01 - Stone Free.flac

Pre-gap length : 00:02:00

Track gain : -6.49 dB
Peak : 1.000000
CRC32 hash (test run) : 1DA3708B
CRC32 hash : 1DA3708B
CRC32 hash (skip zero) : B8C4D868
AccurateRip signature : 43A2558D
->Track not present in AccurateRip database.
Statistics
Read error : 0
Skipped (treated as error) : 0
Edge jitter error (maybe fixed) : 0
Atom jitter error (maybe fixed) : 0
Drift error (maybe fixed) : 0
Dropped bytes error (maybe fixed) : 0
Duplicated bytes error (maybe fixed) : 0
Inconsistency in error sectors : 0

Track 02
Filename : /Users/Desktop/Jimi Hendrix - Valleys Of Neptune (2010) [FLAC]/02 - Valleys of Neptune.flac

Pre-gap length : 00:01:20

Track gain : -5.51 dB
Peak : 0.999115
CRC32 hash (test run) : 28731E68
CRC32 hash : 28731E68
CRC32 hash (skip zero) : F8F90ED9
AccurateRip signature : 46256EEE
->Track not present in AccurateRip database.
Statistics
Read error : 0
Skipped (treated as error) : 0
Edge jitter error (maybe fixed) : 0
Atom jitter error (maybe fixed) : 0
Drift error (maybe fixed) : 0
Dropped bytes error (maybe fixed) : 0
Duplicated bytes error (maybe fixed) : 0
Inconsistency in error sectors : 0

Track 03
Filename : /Users/Desktop/Jimi Hendrix - Valleys Of Neptune (2010) [FLAC]/03 - Bleeding Heart.flac

Pre-gap length : 00:01:54

Track gain : -3.88 dB
Peak : 0.999969
CRC32 hash (test run) : 52F719B1
CRC32 hash : 52F719B1
CRC32 hash (skip zero) : B938FB14
AccurateRip signature : 781CFFB4
->Track not present in AccurateRip database.
Statistics
Read error : 0
Skipped (treated as error) : 0
Edge jitter error (maybe fixed) : 0
Atom jitter error (maybe fixed) : 0
Drift error (maybe fixed) : 0
Dropped bytes error (maybe fixed) : 0
Duplicated bytes error (maybe fixed) : 0
Inconsistency in error sectors : 0

Track 04
Filename : /Users/Desktop/Jimi Hendrix - Valleys Of Neptune (2010) [FLAC]/04 - Hear My Train A Comin'.flac

Pre-gap length : 00:02:35

Track gain : -5.50 dB
Peak : 1.000000
CRC32 hash (test run) : FC3C1602
CRC32 hash : FC3C1602
CRC32 hash (skip zero) : 33D72CFD
AccurateRip signature : A0C1BFC9
->Track not present in AccurateRip database.
Statistics
Read error : 0
Skipped (treated as error) : 0
Edge jitter error (maybe fixed) : 0
Atom jitter error (maybe fixed) : 0
Drift error (maybe fixed) : 0
Dropped bytes error (maybe fixed) : 0
Duplicated bytes error (maybe fixed) : 0
Inconsistency in error sectors : 0

Track 05
Filename : /Users/Desktop/Jimi Hendrix - Valleys Of Neptune (2010) [FLAC]/05 - Mr. Bad Luck.flac

Pre-gap length : 00:02:20

Track gain : -4.73 dB
Peak : 1.000000
CRC32 hash (test run) : 405DBB2C
CRC32 hash : 405DBB2C
CRC32 hash (skip zero) : EFE8107F
AccurateRip signature : B3A0FD5F
->Track not present in AccurateRip database.
Statistics
Read error : 0
Skipped (treated as error) : 0
Edge jitter error (maybe fixed) : 0
Atom jitter error (maybe fixed) : 0
Drift error (maybe fixed) : 0
Dropped bytes error (maybe fixed) : 0
Duplicated bytes error (maybe fixed) : 0
Inconsistency in error sectors : 0

Track 06
Filename : /Users/Desktop/Jimi Hendrix - Valleys Of Neptune (2010) [FLAC]/06 - Sunshine Of Your Love.flac

Pre-gap length : 00:01:49

Track gain : -5.13 dB
Peak : 1.000000
CRC32 hash (test run) : 2D6A578B
CRC32 hash : 2D6A578B
CRC32 hash (skip zero) : 42A69176
AccurateRip signature : ECA5F039
->Track not present in AccurateRip database.
Statistics
Read error : 0
Skipped (treated as error) : 0
Edge jitter error (maybe fixed) : 0
Atom jitter error (maybe fixed) : 0
Drift error (maybe fixed) : 0
Dropped bytes error (maybe fixed) : 0
Duplicated bytes error (maybe fixed) : 0
Inconsistency in error sectors : 0

Track 07
Filename : /Users/Desktop/Jimi Hendrix - Valleys Of Neptune (2010) [FLAC]/07 - Lover Man.flac

Pre-gap length : 00:01:40

Track gain : -6.05 dB
Peak : 1.000000
CRC32 hash (test run) : 60A2B003
CRC32 hash : 60A2B003
CRC32 hash (skip zero) : 9D39D0A4
AccurateRip signature : 3B49D3A7
->Track not present in AccurateRip database.
Statistics
Read error : 0
Skipped (treated as error) : 0
Edge jitter error (maybe fixed) : 0
Atom jitter error (maybe fixed) : 0
Drift error (maybe fixed) : 0
Dropped bytes error (maybe fixed) : 0
Duplicated bytes error (maybe fixed) : 0
Inconsistency in error sectors : 0

Track 08
Filename : /Users/Desktop/Jimi Hendrix - Valleys Of Neptune (2010) [FLAC]/08 - Ships Passing Through The Night.flac

Pre-gap length : 00:02:30

Track gain : -5.34 dB
Peak : 1.000000
CRC32 hash (test run) : 31636864
CRC32 hash : 31636864
CRC32 hash (skip zero) : 4CE5079A
AccurateRip signature : 9396BD1B
->Track not present in AccurateRip database.
Statistics
Read error : 0
Skipped (treated as error) : 0
Edge jitter error (maybe fixed) : 0
Atom jitter error (maybe fixed) : 0
Drift error (maybe fixed) : 0
Dropped bytes error (maybe fixed) : 0
Duplicated bytes error (maybe fixed) : 0
Inconsistency in error sectors : 0

Track 09
Filename : /Users/Desktop/Jimi Hendrix - Valleys Of Neptune (2010) [FLAC]/09 - Fire.flac

Track gain : -6.74 dB
Peak : 1.000000
CRC32 hash (test run) : 69E1CAC6
CRC32 hash : 69E1CAC6
CRC32 hash (skip zero) : F67C7BF6
AccurateRip signature : 12F21609
->Track not present in AccurateRip database.
Statistics
Read error : 0
Skipped (treated as error) : 0
Edge jitter error (maybe fixed) : 0
Atom jitter error (maybe fixed) : 0
Drift error (maybe fixed) : 0
Dropped bytes error (maybe fixed) : 0
Duplicated bytes error (maybe fixed) : 0
Inconsistency in error sectors : 0

Track 10
Filename : /Users/Desktop/Jimi Hendrix - Valleys Of Neptune (2010) [FLAC]/10 - Red House.flac

Track gain : -5.72 dB
Peak : 1.000000
CRC32 hash (test run) : 634588A7
CRC32 hash : 634588A7
CRC32 hash (skip zero) : 074C5D81
AccurateRip signature : F493C0C4
->Track not present in AccurateRip database.
Statistics
Read error : 0
Skipped (treated as error) : 0
Edge jitter error (maybe fixed) : 0
Atom jitter error (maybe fixed) : 0
Drift error (maybe fixed) : 0
Dropped bytes error (maybe fixed) : 0
Duplicated bytes error (maybe fixed) : 0
Inconsistency in error sectors : 0

Track 11
Filename : /Users/Desktop/Jimi Hendrix - Valleys Of Neptune (2010) [FLAC]/11 - Lullaby For The Summer.flac

Pre-gap length : 00:02:53

Track gain : -6.52 dB
Peak : 1.000000
CRC32 hash (test run) : D7E08F1D
CRC32 hash : D7E08F1D
CRC32 hash (skip zero) : FB7958A4
AccurateRip signature : ED505C64
->Track not present in AccurateRip database.
Statistics
Read error : 0
Skipped (treated as error) : 0
Edge jitter error (maybe fixed) : 0
Atom jitter error (maybe fixed) : 0
Drift error (maybe fixed) : 0
Dropped bytes error (maybe fixed) : 0
Duplicated bytes error (maybe fixed) : 0
Inconsistency in error sectors : 0

Track 12
Filename : /Users/Desktop/Jimi Hendrix - Valleys Of Neptune (2010) [FLAC]/12 - Crying Blue Rain.flac

Track gain : -3.93 dB
Peak : 1.000000
CRC32 hash (test run) : A175E37C
CRC32 hash : A175E37C
CRC32 hash (skip zero) : 29B30B37
AccurateRip signature : 7E66F0E0
->Track not present in AccurateRip database.
Statistics
Read error : 0
Skipped (treated as error) : 0
Edge jitter error (maybe fixed) : 0
Atom jitter error (maybe fixed) : 0
Drift error (maybe fixed) : 0
Dropped bytes error (maybe fixed) : 0
Duplicated bytes error (maybe fixed) : 0
Inconsistency in error sectors : 0

Track 13
Filename : /Users/Desktop/Jimi Hendrix - Valleys Of Neptune (2010) [FLAC]/13 - Slow Version.flac

Pre-gap length : 00:01:56

Track gain : -5.77 dB
Peak : 1.000000
CRC32 hash (test run) : C60793F5
CRC32 hash : C60793F5
CRC32 hash (skip zero) : CFEC5A77
AccurateRip signature : 4397854D
->Track not present in AccurateRip database.
Statistics
Read error : 0
Skipped (treated as error) : 0
Edge jitter error (maybe fixed) : 0
Atom jitter error (maybe fixed) : 0
Drift error (maybe fixed) : 0
Dropped bytes error (maybe fixed) : 0
Duplicated bytes error (maybe fixed) : 0
Inconsistency in error sectors : 0

Track 14
Filename : /Users/Desktop/Jimi Hendrix - Valleys Of Neptune (2010) [FLAC]/14 - Trash Man.flac

Pre-gap length : 00:01:14

Track gain : -4.12 dB
Peak : 1.000000
CRC32 hash (test run) : C6DDC899
CRC32 hash : C6DDC899
CRC32 hash (skip zero) : 2864923E
AccurateRip signature : 07BF63B4
->Track not present in AccurateRip database.
Statistics
Read error : 0
Skipped (treated as error) : 0
Edge jitter error (maybe fixed) : 0
Atom jitter error (maybe fixed) : 0
Drift error (maybe fixed) : 0
Dropped bytes error (maybe fixed) : 0
Duplicated bytes error (maybe fixed) : 0
Inconsistency in error sectors : 0

No errors occurred

End of status report






ADVERTISING » Download fast « ADVERTISING
Posted By: libra_winmx Date: 19 Mar 2022 12:00:03
Dear SteveJobs, hi,

Thanks a lot.
Gracias,

libra
Posted By: Dr. Robert Date: 19 Mar 2022 12:19:02
Hi Steve,

This will be a good comparison CD with the vinyl rip just posted. What is your review?

Cheers, Rob
Posted By: SteveJobs Date: 19 Mar 2022 12:45:26
Hi Dr. Robert,

Of course I prefer bh80231s vinyl rip. It has much warmer sound and is more relaxed. The CD is more driving forward, has more attack but could sometimes sound aggressive too.
And the Experience Hendrix marketing is crazy - bonustracks all over the place... So bad that you don't get all the tracks with the vinyl.
I have read that there is a vinyl single out there too. I guess it has just another track on the B-Side...

Cheers

Steve
Posted By: DarkMagus Date: 19 Mar 2022 12:46:48
Thank you, Mr.Jobs.
Posted By: bokway Date: 19 Mar 2022 14:23:35
Thanks very much SteveJobs: this is a great upload and very timely. Appreciate all your efforts.

Bokway
Red Desert
Posted By: astrozz Date: 19 Mar 2022 16:41:22
Many thanks for this great music!
Posted By: gkimonas Date: 19 Mar 2022 19:45:02
Many thanks!

I liked it very much...
Posted By: rgd Date: 19 Mar 2022 21:46:23
Un tout tout grand merci. Je suis impatient de l'écouter en version CD
Posted By: testdrug Date: 21 Mar 2022 17:23:29
Can someone up a lossy version?

Thank you.
Posted By: cinephilesse Date: 23 Mar 2022 02:34:28
Both Rapidshare and MU links already dead... could pls someone be an angel and try to re-up them? A million thanks
Recent searches: