Loading...
Done
Home > Music
Jimi Hendrix – Message From Nine To The Universe
Posted By : SteveJobs | Date : 21 Mar 2022 15:28:28 | Comments : 3
Message

Jimi Hendrix – Message From Nine To The Universe (2006)
XLD Rip | Flac (Tracks) Cue, Log, m3u, md5, st5, ffp | complete Artwork 300 dpi | 521 MB
Rock | 2006 | Reclamation | RECD1012

Drawn from various sessions recorded between March 1969 and March 1970 some of the music featured on this disc originally appeared on the album Nine To The Universe. At the time of the albums release (1980) many suggested that Jimi was heading in a jazz direction although the recordings show no real sign of this despite featuring contributions from known jazzers such as Larry Young and Dave Holland both of whom had worked with British jazz guitarist John McLaughlin and worked along with McLaughlin on the landmark Miles Davis album Bitches Brew.

The recordings here are the unedited recordings that Alan Douglas utilised to make his final selection on the original Nine To The Universe album. At the time the release was heralded as the final unreleased recordings to be made available for Alan Douglas to shape into a releasable album. Time and subsequent releases however have obviously proved that there were and indeed are many recordings still lying in the vaults that are awaiting release. In essence the music contained on this disc could be described as a series of jams. With Jimi inviting other musicians into the studio with him to try out new musical ideas. Alan Douglas merely fashioned an album out of the material here although in his defence he did a fair job in trying to deliver a commercial album the record label could market.

These performances however are the real raw material and as such are now heard in the correct context rather than the edited pieces that appeared on the 1980 album. Here the pieces are longer and looser and they give a much better idea of how Jimi worked in a studio and drew on many influences. Of the material here only Lover Man ever made it to a fully fashioned live performance where it made the set regularly from late summer 1969 through to just before Jimis death in September 1970. Jimi preformed this song more famously during the Woodstock Festival and also at the Isle Of Wight Festival just weeks before his death and is featured on the live albums drawn from recordings of those events and also on the Live At Berkley album recorded in May 1970.

The quality of these studio tracks is stunning and it is far more interesting to hear the full versions of the songs that Alan Douglas used for his edited version of Nine To The Universe in 1980 and as such places that album in far better perspective. These recordings have been described as jams although Jimis creative spark is present throughout the sessions. Despite the claims that Jimi was to move in a more jazz oriented direction and Miles Davis had expressed an interest in working with him there seems to be no evidence on these recordings that Jimi would have moved in any direction other than the one he wanted to. These recordings then are considered historic and as cutting edge as Jimi Hendrix ever was but the style is all of Jimis making.


The disc claims to be "officially licensed from the estate of Hendrix's former manager, Michael Jeffrey" and is a "limited edition - only 1500 copies world-wide", but I think this is just a good trick by the bootleggers to make it look a little bit more like an official release. The sound is great anyway.

Hendrix

Tracklisting:
1. Nine To The Universe
2. Jimi/Jimmy Jam
3. Young/Hendrix Jam
4. Easy Blues
5. Drone Blues
6. Midnight Lightning Jam
7. Highway Of Broken Dreams
8. Lonely Avenue Jam
9. Lover Man
10. Trying To Be



XLD Log
X Lossless Decoder version 20100302 (116.6)

XLD extraction logfile from 2022-03-20 10:59:00 +0100

Jimi Hendrix / Message From Nine To The Universe

Used drive : PIONEER DVD-RW DVR-K06A (revision Q631)

Use cdparanoia mode : YES (CDParanoia III 10.2 engine)
Disable audio cache : OK for the drive with cache less than 2750KB
Make use of C2 pointers : NO
Read offset correction : 48
Max retry count : 100

TOC of the extracted CD
Track | Start | Length | Start sector | End sector
---------------------------------------------------------
1 | 00:00:00 | 08:47:71 | 0 | 39595
2 | 08:47:71 | 08:01:23 | 39596 | 75693
3 | 16:49:19 | 10:25:68 | 75694 | 122636
4 | 27:15:12 | 04:17:20 | 122637 | 141931
5 | 31:32:32 | 06:18:13 | 141932 | 170294
6 | 37:50:45 | 11:58:57 | 170295 | 224201
7 | 49:49:27 | 14:15:63 | 224202 | 288389
8 | 64:05:15 | 02:48:47 | 288390 | 301036
9 | 66:53:62 | 04:12:62 | 301037 | 319998
10 | 71:06:49 | 07:14:13 | 319999 | 352561


All Tracks
Album gain : -5.56 dB
Peak : 0.987976

Track 01
Filename : /Users/Desktop/Jimi Hendrix - Message From Nine To The Universe (2006) [FLAC]/01 - Nine To The Universe.flac

Pre-gap length : 00:02:00

Track gain : -3.39 dB
Peak : 0.985718
CRC32 hash (test run) : 70D1061C
CRC32 hash : 70D1061C
CRC32 hash (skip zero) : A9208694
AccurateRip signature : 830A1A2E
->Accurately ripped! (confidence 3)
Statistics
Read error : 0
Skipped (treated as error) : 0
Edge jitter error (maybe fixed) : 0
Atom jitter error (maybe fixed) : 0
Drift error (maybe fixed) : 0
Dropped bytes error (maybe fixed) : 0
Duplicated bytes error (maybe fixed) : 0
Inconsistency in error sectors : 0

Track 02
Filename : /Users/Desktop/Jimi Hendrix - Message From Nine To The Universe (2006) [FLAC]/02 - Jimi-Jimmy Jam.flac

Pre-gap length : 00:01:58

Track gain : -3.22 dB
Peak : 0.985565
CRC32 hash (test run) : 2584ABFE
CRC32 hash : 2584ABFE
CRC32 hash (skip zero) : 1DA2E6CC
AccurateRip signature : C37EA566
->Accurately ripped! (confidence 3)
Statistics
Read error : 0
Skipped (treated as error) : 0
Edge jitter error (maybe fixed) : 0
Atom jitter error (maybe fixed) : 0
Drift error (maybe fixed) : 0
Dropped bytes error (maybe fixed) : 0
Duplicated bytes error (maybe fixed) : 0
Inconsistency in error sectors : 0

Track 03
Filename : /Users/Desktop/Jimi Hendrix - Message From Nine To The Universe (2006) [FLAC]/03 - Young-Hendrix Jam.flac

Pre-gap length : 00:01:58

Track gain : -2.31 dB
Peak : 0.952942
CRC32 hash (test run) : E6E3B59C
CRC32 hash : E6E3B59C
CRC32 hash (skip zero) : 7DC7C02D
AccurateRip signature : 8BAF7F9A
->Accurately ripped! (confidence 3)
Statistics
Read error : 0
Skipped (treated as error) : 0
Edge jitter error (maybe fixed) : 0
Atom jitter error (maybe fixed) : 0
Drift error (maybe fixed) : 0
Dropped bytes error (maybe fixed) : 0
Duplicated bytes error (maybe fixed) : 0
Inconsistency in error sectors : 0

Track 04
Filename : /Users/Desktop/Jimi Hendrix - Message From Nine To The Universe (2006) [FLAC]/04 - Easy Blues.flac

Pre-gap length : 00:01:58

Track gain : -4.10 dB
Peak : 0.949585
CRC32 hash (test run) : BF211783
CRC32 hash : BF211783
CRC32 hash (skip zero) : 8ECD5EFE
AccurateRip signature : 28AE1E7F
->Accurately ripped! (confidence 2)
Statistics
Read error : 0
Skipped (treated as error) : 0
Edge jitter error (maybe fixed) : 0
Atom jitter error (maybe fixed) : 0
Drift error (maybe fixed) : 0
Dropped bytes error (maybe fixed) : 0
Duplicated bytes error (maybe fixed) : 0
Inconsistency in error sectors : 0

Track 05
Filename : /Users/Desktop/Jimi Hendrix - Message From Nine To The Universe (2006) [FLAC]/05 - Drone Blues.flac

Pre-gap length : 00:01:58

Track gain : -3.81 dB
Peak : 0.985748
CRC32 hash (test run) : 3192BF7F
CRC32 hash : 3192BF7F
CRC32 hash (skip zero) : F0968328
AccurateRip signature : 8A95424B
->Accurately ripped! (confidence 2)
Statistics
Read error : 0
Skipped (treated as error) : 0
Edge jitter error (maybe fixed) : 0
Atom jitter error (maybe fixed) : 0
Drift error (maybe fixed) : 0
Dropped bytes error (maybe fixed) : 0
Duplicated bytes error (maybe fixed) : 0
Inconsistency in error sectors : 0

Track 06
Filename : /Users/Desktop/Jimi Hendrix - Message From Nine To The Universe (2006) [FLAC]/06 - Midnight Lightning Jam.flac

Pre-gap length : 00:01:58

Track gain : -3.92 dB
Peak : 0.979370
CRC32 hash (test run) : 1525A964
CRC32 hash : 1525A964
CRC32 hash (skip zero) : 0A938C21
AccurateRip signature : 2FEB8978
->Accurately ripped! (confidence 3)
Statistics
Read error : 0
Skipped (treated as error) : 0
Edge jitter error (maybe fixed) : 0
Atom jitter error (maybe fixed) : 0
Drift error (maybe fixed) : 0
Dropped bytes error (maybe fixed) : 0
Duplicated bytes error (maybe fixed) : 0
Inconsistency in error sectors : 0

Track 07
Filename : /Users/Desktop/Jimi Hendrix - Message From Nine To The Universe (2006) [FLAC]/07 - Highway Of Broken Dreams.flac

Pre-gap length : 00:01:58

Track gain : -5.76 dB
Peak : 0.963989
CRC32 hash (test run) : C237B823
CRC32 hash : C237B823
CRC32 hash (skip zero) : D66E51FA
AccurateRip signature : 6E2A3DCD
->Accurately ripped! (confidence 3)
Statistics
Read error : 0
Skipped (treated as error) : 0
Edge jitter error (maybe fixed) : 0
Atom jitter error (maybe fixed) : 0
Drift error (maybe fixed) : 0
Dropped bytes error (maybe fixed) : 0
Duplicated bytes error (maybe fixed) : 0
Inconsistency in error sectors : 0

Track 08
Filename : /Users/Desktop/Jimi Hendrix - Message From Nine To The Universe (2006) [FLAC]/08 - Lonely Avenue Jam.flac

Pre-gap length : 00:01:58

Track gain : -8.07 dB
Peak : 0.882507
CRC32 hash (test run) : E526A40A
CRC32 hash : E526A40A
CRC32 hash (skip zero) : 503F24E5
AccurateRip signature : E090A57C
->Accurately ripped! (confidence 3)
Statistics
Read error : 0
Skipped (treated as error) : 0
Edge jitter error (maybe fixed) : 0
Atom jitter error (maybe fixed) : 0
Drift error (maybe fixed) : 0
Dropped bytes error (maybe fixed) : 0
Duplicated bytes error (maybe fixed) : 0
Inconsistency in error sectors : 0

Track 09
Filename : /Users/Desktop/Jimi Hendrix - Message From Nine To The Universe (2006) [FLAC]/09 - Lover Man.flac

Pre-gap length : 00:01:58

Track gain : -8.57 dB
Peak : 0.987976
CRC32 hash (test run) : 3F3F7151
CRC32 hash : 3F3F7151
CRC32 hash (skip zero) : C6E8A0C4
AccurateRip signature : 71A7D0C4
->Accurately ripped! (confidence 3)
Statistics
Read error : 0
Skipped (treated as error) : 0
Edge jitter error (maybe fixed) : 0
Atom jitter error (maybe fixed) : 0
Drift error (maybe fixed) : 0
Dropped bytes error (maybe fixed) : 0
Duplicated bytes error (maybe fixed) : 0
Inconsistency in error sectors : 0

Track 10
Filename : /Users/Desktop/Jimi Hendrix - Message From Nine To The Universe (2006) [FLAC]/10 - Trying To Be.flac

Pre-gap length : 00:01:58

Track gain : -7.25 dB
Peak : 0.985809
CRC32 hash (test run) : A0DB4929
CRC32 hash : A0DB4929
CRC32 hash (skip zero) : CB222040
AccurateRip signature : 9E1A414F
->Accurately ripped! (confidence 3)
Statistics
Read error : 0
Skipped (treated as error) : 0
Edge jitter error (maybe fixed) : 0
Atom jitter error (maybe fixed) : 0
Drift error (maybe fixed) : 0
Dropped bytes error (maybe fixed) : 0
Duplicated bytes error (maybe fixed) : 0
Inconsistency in error sectors : 0

No errors occurred

End of status report






ADVERTISING » Download fast « ADVERTISING
Posted By: gonzalo76 Date: 21 Mar 2022 21:09:19
Thank you very kindly Steve !
Posted By: Fusion_Brasil Date: 21 Mar 2022 21:37:16
Fantastic Job, Mr. Jobs :)

Thanks a lot!
Posted By: astrozz Date: 22 Mar 2022 12:39:17
Many thanks for this rare music!
Recent searches: