Loading...
Done
Home > Music
Jimi Hendrix - Cornerstones 1967-1970 (1990)
Posted By : MeisterLee | Date : 30 Dec 2021 02:30:18 | Comments : 1

Jimi Hendrix - Cornerstones 1967-1970 (1990)
EAC AccurateRip | FLAC | LOG, no CUE | Scans | 18 Tracks | 01:08:40 min
438 MB | Label: Polydor | CD Nr. 847-231-2
Rock

In his brief four-year reign as a superstar, Jimi Hendrix expanded the vocabulary of the electric rock guitar more than anyone before or since. Hendrix was a master at coaxing all manner of unforeseen sonics from his instrument, often with innovative amplification experiments that produced astral-quality feedback and roaring distortion. His frequent hurricane blasts of noise and dazzling showmanship -- he could and would play behind his back and with his teeth and set his guitar on fire -- has sometimes obscured his considerable gifts as a songwriter, singer, and master of a gamut of blues, R&B, and rock styles.
















Jimi Hendrix - Cornerstones 1967-1970

01. Hey Joe 03:32
02. Purple Haze 02:51
03. The Wind Cries Mary 03:22
04. Foxy Lady 03:18
05. Crosstown Traffic 02:28
06. All Along The Watchtower 04:01
07. Voodoo Chile (Slight Return) 05:12
08. Have You Ever Been (To Electric Ladyland) 02:10
09. Star Spangled Banner 04:10
10. Stepping Stone 04:09
11. Room Full Of Mirrors 03:18
12. Ezy Ryder 04:09
13. Freedom 03:27
14. Drifting 03:48
15. In From The Storm 03:43
16. Angel 04:28
17. Fire (live) 03:57
18. Stone Free (live) 06:20



log
Exact Audio Copy V0.99 prebeta 5 from 4. May 2009

EAC Auslese-Logdatei vom 29. Dezember 2009, 23:46

Jimi Hendrix / Cornerstones 1967-1970

Benutztes Laufwerk : TSSTcorpDVD-ROM SH-D162C Adapter: 4 ID: 1




TOC der ausgelesenen CD

Track | Start | Länge | Startsektor | Endsektor
-------------------------------------------------------
1 | 0:00.00 | 3:32.27 | 0 | 15926
2 | 3:32.27 | 2:51.70 | 15927 | 28821
3 | 6:24.22 | 3:22.10 | 28822 | 43981
4 | 9:46.32 | 3:18.70 | 43982 | 58901
5 | 13:05.27 | 2:28.00 | 58902 | 70001
6 | 15:33.27 | 4:01.35 | 70002 | 88111
7 | 19:34.62 | 5:12.63 | 88112 | 111574
8 | 24:47.50 | 2:10.47 | 111575 | 121371
9 | 26:58.22 | 4:10.35 | 121372 | 140156
10 | 31:08.57 | 4:09.28 | 140157 | 158859
11 | 35:18.10 | 3:18.17 | 158860 | 173726
12 | 38:36.27 | 4:09.60 | 173727 | 192461
13 | 42:46.12 | 3:27.60 | 192462 | 208046
14 | 46:13.72 | 3:48.58 | 208047 | 225204
15 | 50:02.55 | 3:43.52 | 225205 | 241981
16 | 53:46.32 | 4:28.15 | 241982 | 262096
17 | 58:14.47 | 3:57.38 | 262097 | 279909
18 | 62:12.10 | 6:20.30 | 279910 | 308439


Track 1

Jimi Hendrix - Cornerstones 1967-1970 [1990]\01. Hey Joe.wav

Pausenlänge 0:00:02.00

Spitzenpegel 99.6 %
Test CRC 8FA13394
Kopie CRC 8FA13394
Akkurat gelesen (Zuversicht 23) [A5A983E5]
Kopie OK

Track 2

Jimi Hendrix - Cornerstones 1967-1970 [1990]\02. Purple Haze.wav

Pausenlänge 0:00:03.15

Spitzenpegel 95.4 %
Test CRC 34DCE454
Kopie CRC 34DCE454
Akkurat gelesen (Zuversicht 23) [24308BEF]
Kopie OK

Track 3

Jimi Hendrix - Cornerstones 1967-1970 [1990]\03. The Wind Cries Mary.wav

Pausenlänge 0:00:02.12

Spitzenpegel 94.4 %
Test CRC D75E1863
Kopie CRC D75E1863
Akkurat gelesen (Zuversicht 23) [EF03D113]
Kopie OK

Track 4

Jimi Hendrix - Cornerstones 1967-1970 [1990]\04. Foxy Lady.wav

Pausenlänge 0:00:01.27

Spitzenpegel 86.1 %
Test CRC 22E2BD71
Kopie CRC 22E2BD71
Akkurat gelesen (Zuversicht 23) [813B6117]
Kopie OK

Track 5

Jimi Hendrix - Cornerstones 1967-1970 [1990]\05. Crosstown Traffic.wav

Pausenlänge 0:00:01.45

Spitzenpegel 81.3 %
Test CRC D35AB6BC
Kopie CRC D35AB6BC
Akkurat gelesen (Zuversicht 23) [749E9E18]
Kopie OK

Track 6

Jimi Hendrix - Cornerstones 1967-1970 [1990]\06. All Along The Watchtower.wav

Pausenlänge 0:00:02.17

Spitzenpegel 91.7 %
Test CRC 156C079C
Kopie CRC 156C079C
Akkurat gelesen (Zuversicht 23) [AA375DFC]
Kopie OK

Track 7

Jimi Hendrix - Cornerstones 1967-1970 [1990]\07. Voodoo Chile (Slight Return).wav

Pausenlänge 0:00:02.32

Spitzenpegel 83.4 %
Test CRC BD4CE784
Kopie CRC BD4CE784
Akkurat gelesen (Zuversicht 23) [209BAB9A]
Kopie OK

Track 8

Jimi Hendrix - Cornerstones 1967-1970 [1990]\08. Have You Ever Been (To Electric Ladyland).wav

Pausenlänge 0:00:00.63

Spitzenpegel 91.5 %
Test CRC 6DAE725F
Kopie CRC 6DAE725F
Akkurat gelesen (Zuversicht 23) [CDDFB7B5]
Kopie OK

Track 9

Jimi Hendrix - Cornerstones 1967-1970 [1990]\09. Star Spangled Banner.wav

Pausenlänge 0:00:01.55

Spitzenpegel 90.5 %
Test CRC 6E4A86F2
Kopie CRC 6E4A86F2
Akkurat gelesen (Zuversicht 23) [604124AC]
Kopie OK

Track 10

Jimi Hendrix - Cornerstones 1967-1970 [1990]\10. Stepping Stone.wav

Pausenlänge 0:00:02.67

Spitzenpegel 78.3 %
Test CRC 2C120C03
Kopie CRC 2C120C03
Akkurat gelesen (Zuversicht 23) [17343900]
Kopie OK

Track 11

Jimi Hendrix - Cornerstones 1967-1970 [1990]\11. Room Full Of Mirrors.wav

Pausenlänge 0:00:01.60

Spitzenpegel 91.6 %
Test CRC 2B8CE257
Kopie CRC 2B8CE257
Akkurat gelesen (Zuversicht 23) [5C0D65E9]
Kopie OK

Track 12

Jimi Hendrix - Cornerstones 1967-1970 [1990]\12. Ezy Ryder.wav

Pausenlänge 0:00:00.67

Spitzenpegel 83.3 %
Test CRC D571C6D5
Kopie CRC D571C6D5
Akkurat gelesen (Zuversicht 23) [9C9BF95A]
Kopie OK

Track 13

Jimi Hendrix - Cornerstones 1967-1970 [1990]\13. Freedom.wav

Pausenlänge 0:00:01.37

Spitzenpegel 86.3 %
Test CRC E19E024B
Kopie CRC E19E024B
Akkurat gelesen (Zuversicht 23) [83604E49]
Kopie OK

Track 14

Jimi Hendrix - Cornerstones 1967-1970 [1990]\14. Drifting.wav

Pausenlänge 0:00:01.45

Spitzenpegel 89.4 %
Test CRC 0FF33986
Kopie CRC 0FF33986
Akkurat gelesen (Zuversicht 23) [00C13E12]
Kopie OK

Track 15

Jimi Hendrix - Cornerstones 1967-1970 [1990]\15. In From The Storm.wav

Pausenlänge 0:00:01.00

Spitzenpegel 79.8 %
Test CRC 1C44A1E5
Kopie CRC 1C44A1E5
Akkurat gelesen (Zuversicht 23) [EE6A0384]
Kopie OK

Track 16

Jimi Hendrix - Cornerstones 1967-1970 [1990]\16. Angel.wav

Pausenlänge 0:00:02.12

Spitzenpegel 90.0 %
Test CRC 23CA97C8
Kopie CRC 23CA97C8
Akkurat gelesen (Zuversicht 23) [2FE9EEEF]
Kopie OK

Track 17

Jimi Hendrix - Cornerstones 1967-1970 [1990]\17. Fire (live).wav

Pausenlänge 0:00:02.52

Spitzenpegel 90.0 %
Test CRC 4F399069
Kopie CRC 4F399069
Akkurat gelesen (Zuversicht 22) [4ED7D4EE]
Kopie OK

Track 18

Jimi Hendrix - Cornerstones 1967-1970 [1990]\18. Stone Free (live).wav

Spitzenpegel 86.7 %
Test CRC 8D7FDE65
Kopie CRC 8D7FDE65
Akkurat gelesen (Zuversicht 23) [BECFF3EF]
Kopie OK


Alle Tracks wurden akkurat gelesen

Keine Fehler aufgetreten

Ende des Statusreports




Rapidshare

http://rapidshare.com/files/327685927/Jimi.part1.rar
http://rapidshare.com/files/327690285/Jimi.part2.rar
http://rapidshare.com/files/327694060/Jimi.part3.rar
http://rapidshare.com/files/327697789/Jimi.part4.rar
http://rapidshare.com/files/327681999/Jimi.part5.rar

ADVERTISING » Download fast « ADVERTISING
Posted By: gonzalo76 Date: 31 Dec 2021 21:10:43
Thank you very kindly !
DONATE AVAXHOME:

Donate please!