Loading...
Done
Home > Music
Jimi Hendrix - By Himself - The Home Recordings
Posted By : SteveJobs | Date : 02 Feb 2022 22:52:10 | Comments : 14
Jimi Hendrix - By Himself

Jimi Hendrix - By Himself - The Home Recordings (1995)
XLD Rip | Flac (Tracks-6) Cue, Log, m3u, md5, st5, ffp | complete Artwork 300 dpi | 223 MB
Rock | 1995 | Penguin Books | BSP-VC1


Bonus-CD of raw and pure homerecordings only available with the comic-book "Voodoo Child".
This is Jimi alone in his apartment in New York sometime in 1968, rehearsing songs that were supposed to be on Electric Ladyland with just a guitar, one mike and a small amp.

The sound quality is what is absolutely stunning about these songs - there is virtually no tape hiss, dead silence in ambient background, just Jimi, playing very relaxed and laid-back. You can hear him turning pages of sheet music during some bridges and breaks between songs, and just when you think you've heard everything, the phone rings (and goes unanswered) near the end of the album.


Jimi Hendrix - Voodoo Child

Tracklisting:

1 1983... (A Merman I Should Turn to Be) 7:45
2 Angel 3:28
3 Cherokee Jam 3:12
4 Hear My Train a Comin' 1:22
5 Voodoo Chile/Cherokee Mist 10:09
6 Gypsy Eyes 2:59



XLD Log
X Lossless Decoder version 20100123 (115.4)

XLD extraction logfile from 2022-02-02 19:58:52 +0100

Jimi Hendrix / By Himself - The Home Recordings

Used drive : PIONEER DVD-RW DVR-K06A (revision Q631)

Use cdparanoia mode : YES (CDParanoia III 10.2 engine)
Disable audio cache : OK for the drive with cache less than 2750KB
Make use of C2 pointers : NO
Read offset correction : 48
Max retry count : 100

TOC of the extracted CD
Track | Start | Length | Start sector | End sector
---------------------------------------------------------
1 | 00:00:00 | 07:45:27 | 0 | 34901
2 | 07:45:27 | 03:27:43 | 34902 | 50469
3 | 11:12:70 | 03:12:05 | 50470 | 64874
4 | 14:25:00 | 01:21:40 | 64875 | 70989
5 | 15:46:40 | 10:09:10 | 70990 | 116674
6 | 25:55:50 | 02:58:70 | 116675 | 130094

List of alternate offset correction values
# | Absolute | Relative | Confidence
------------------------------------------
1 | -798 | -846 | 3

Track 01
Filename : /Users/Desktop/Jimi Hendrix - By Himself - The Home Recordings (1995) [FLAC]/01 - 1983... (A Merman I Should Turn To Be).flac

Pre-gap length : 00:02:00

CRC32 hash (test run) : 3D9F3CEE
CRC32 hash : 3D9F3CEE
CRC32 hash (skip zero) : 509AB2F2
AccurateRip signature : 897E6963
->Accurately ripped! (confidence 4)
Statistics
Read error : 0
Skipped (treated as error) : 0
Edge jitter error (maybe fixed) : 0
Atom jitter error (maybe fixed) : 0
Drift error (maybe fixed) : 0
Dropped bytes error (maybe fixed) : 0
Duplicated bytes error (maybe fixed) : 0
Inconsistency in error sectors : 0

Track 02
Filename : /Users/Desktop/Jimi Hendrix - By Himself - The Home Recordings (1995) [FLAC]/02 - Angel.flac

CRC32 hash (test run) : B2CE854A
CRC32 hash : B2CE854A
CRC32 hash (skip zero) : DF7D2B04
AccurateRip signature : 5D539FE1
->Accurately ripped! (confidence 4)
Statistics
Read error : 0
Skipped (treated as error) : 0
Edge jitter error (maybe fixed) : 0
Atom jitter error (maybe fixed) : 0
Drift error (maybe fixed) : 0
Dropped bytes error (maybe fixed) : 0
Duplicated bytes error (maybe fixed) : 0
Inconsistency in error sectors : 0

Track 03
Filename : /Users/Desktop/Jimi Hendrix - By Himself - The Home Recordings (1995) [FLAC]/03 - Cherokee Jam.flac

CRC32 hash (test run) : 48C6A039
CRC32 hash : 48C6A039
CRC32 hash (skip zero) : 6BCDF7F4
AccurateRip signature : 2C3738C2
->Accurately ripped! (confidence 4)
Statistics
Read error : 0
Skipped (treated as error) : 0
Edge jitter error (maybe fixed) : 0
Atom jitter error (maybe fixed) : 0
Drift error (maybe fixed) : 0
Dropped bytes error (maybe fixed) : 0
Duplicated bytes error (maybe fixed) : 0
Inconsistency in error sectors : 0

Track 04
Filename : /Users/Desktop/Jimi Hendrix - By Himself - The Home Recordings (1995) [FLAC]/04 - Hear My Train A'Comin'.flac

CRC32 hash (test run) : 6CDBB579
CRC32 hash : 6CDBB579
CRC32 hash (skip zero) : DC13CBA5
AccurateRip signature : 45AD8A7A
->Accurately ripped! (confidence 4)
Statistics
Read error : 0
Skipped (treated as error) : 0
Edge jitter error (maybe fixed) : 0
Atom jitter error (maybe fixed) : 0
Drift error (maybe fixed) : 0
Dropped bytes error (maybe fixed) : 0
Duplicated bytes error (maybe fixed) : 0
Inconsistency in error sectors : 0

Track 05
Filename : /Users/Desktop/Jimi Hendrix - By Himself - The Home Recordings (1995) [FLAC]/05 - Voodoo Chile - Cherokee Mist.flac

CRC32 hash (test run) : A53F3086
CRC32 hash : A53F3086
CRC32 hash (skip zero) : FAC26E61
AccurateRip signature : 87318F4D
->Accurately ripped! (confidence 4)
Statistics
Read error : 0
Skipped (treated as error) : 0
Edge jitter error (maybe fixed) : 0
Atom jitter error (maybe fixed) : 0
Drift error (maybe fixed) : 0
Dropped bytes error (maybe fixed) : 0
Duplicated bytes error (maybe fixed) : 0
Inconsistency in error sectors : 0

Track 06
Filename : /Users/Desktop/Jimi Hendrix - By Himself - The Home Recordings (1995) [FLAC]/06 - Gypsy Eyes.flac

CRC32 hash (test run) : F05F1D1B
CRC32 hash : F05F1D1B
CRC32 hash (skip zero) : 6DDAB0BF
AccurateRip signature : B5095451
->Accurately ripped! (confidence 4)
Statistics
Read error : 0
Skipped (treated as error) : 0
Edge jitter error (maybe fixed) : 0
Atom jitter error (maybe fixed) : 0
Drift error (maybe fixed) : 0
Dropped bytes error (maybe fixed) : 0
Duplicated bytes error (maybe fixed) : 0
Inconsistency in error sectors : 0

No errors occurred

End of status report




ADVERTISING » Download fast « ADVERTISING
Posted By: goa Date: 03 Feb 2022 01:16:06
thx buddie!!!

could you start, if it's not big trouble, to consider uploading also a mirror on mediafire...or if that's not possible, in megaupload?
Posted By: mad-mex Date: 03 Feb 2022 01:33:33
Thanks a lot for this "something different" one.

goa:
rapidshare promised new servers for march, and a lot of the download limitations will be gone.
Check out their homepage / news.
And never forget:
Uploading is WAY SLOWER than downloading !
Posted By: LeftyRight Date: 03 Feb 2022 02:56:31
Thanks heaps SteveJobs.
Great work mate. :)
Cheers
LeftyRight
Posted By: oXbow Date: 03 Feb 2022 09:17:26
Thanks for let me have this one back. I found it on a torrent some years back, but it is for somehow gone. It is a very private Hendrix on this one. Great post!
Posted By: SteveJobs Date: 03 Feb 2022 09:59:38
So as a kind of experiment I upload this one to Mediafire and Megaupload to see if there is really so much demand of alternate mirrors and how many people will use them.
According to Avax rules anyone is free to post mirrors as long as the author does not forbid it in his posting. But I see this opportunity is rarely used by downloaders.
As uploading takes quite some time I think this is a one off experiment, but let's see how many people will use the alternate options.


Mediafire:
http://www.mediafire.com/?zygjlmnz0ti
http://www.mediafire.com/?nfjdwwljgwy
http://www.mediafire.com/?2mvwd0i1lro

Megaupload
http://www.megaupload.com/?d=4U34VP04
http://www.megaupload.com/?d=JC2UNKRF
http://www.megaupload.com/?d=EM0CHD9Q

Posted By: goa Date: 03 Feb 2022 11:17:31
Thanks SteveJobs ( :lol: )

I use JDownloader.

I used the Hendrix mediafire links now at work, and reached the speed of 1 MB :lol:
(at home my dl speed is only 70 kbps :-( )


RS is blocked here, and MU is quite good for free users, and the speed I get is around 300 kbps, not bad at all.

RS for free usurs sucks, yesterday at home, "there are no availible slots" for 2 damn hours!!!


StevJobs: I really appreciatted the MF...why is not popular, I don't get it?
Posted By: SteveJobs Date: 03 Feb 2022 11:55:14
I think it depends very much from where you download and which download manager you use. I have the most trouble with MU. Usually I have to try several times and can get only one archive per day. (But I don't use JD yet.)
Why MF isn't more popular I don't know. Upload speeds are average for me and I can only upload one file at a time. For multiuploads I'd have to upgrade to premium user and have to pay them. There isn't a rewards program for uploaders too so I guess that's why it isn't so popular either.
It's enough of a hassle to manage one filesharing service alone, so I guess most people stick to what it is used by most: RS...
Posted By: goa Date: 03 Feb 2022 15:20:14
YOU have to use JDownloader.

and with mediafire you could upload several files, a pair of clicks and that's all
I do it, and YOU know I did it recently for you :lol:

There is no need to premium.

anyway, thanks and check your e-mail for a LR DVD
Posted By: MusicLoverMan Date: 03 Feb 2022 16:20:59
Thank You SteveJobs.

Sound is Great!
One Jimi worth dozen of some others...
Thank You for mirrors - used both and finished in 4 minutes.
RS would take hours...
Thank You for this new, rare Jimi!
Posted By: Goodspeed Date: 03 Feb 2022 17:28:25
At the moment my dowload speed with RS (Premium account) is almost as high (or low) compared to MU as a free user... Let's all boycot RapidCrap!

Thanks for this new-to-me Jimi CD!
Posted By: SteveJobs Date: 03 Feb 2022 17:35:22
Thank you for your comments concerning download speeds. Quite interesting and often quite different from what I experience.

Anyway enjoy this fine Jimi recording. It is quite different to what you usually hear on a Hendrix release.
Posted By: JustPlay Date: 03 Feb 2022 23:20:54
Oh, what a great cd!
Very nice they have puted the benefit CD inside the book.
Thank you Steve for this great jobs! :)))

I have premium RS account but I hate that crap hoster, RS use us like chip workers.
I have a lot premium points but I can't use it to extend my account more than one month,
but at same time is allowed to pay cash every day for few years in advance.

btw
Are the scans original or you made them?
Posted By: SteveJobs Date: 03 Feb 2022 23:42:04
Thanks for your comment JustPlay. I think RS knows that it makes most of it's $$s with filesharing sites like this and I feel they are trying to make as much $$s from us as possible. (Although I have enough points to go for a long time...)
For non-premium users it must be worst. Like I experience it with services where I am the free user...

I'm trying some alternatives - let's see how they work.

I have made all the scans myself. On my Epson scanner... :-)
Posted By: goa Date: 04 Feb 2022 01:28:38
this is like having JH playing in your room...what a beatiful experience...Am I Experienced? :lol:

if you have some more JH in this "relaxed" state, official or bootleg, would be welcomed.
Recent searches:
DONATE AVAXHOME:

Donate please!