Loading...
Done
Home > Music
Harmonia - Musik Von Harmonia
Posted By : SteveJobs | Date : 25 Mar 2022 16:56:01 | Comments : 3
Harmonia

Harmonia - Musik Von Harmonia (1974)
XLD Rip | Flac (Tracks) Cue, Log, m3u, md5, st5, ffp | complete Artwork 300 dpi | 308 MB
Electronic | Krautrock | 2004 | Brain/Motor Music/Universal | 06024 981298-3

Musik Von Harmonia is the debut album from the highly influential Krautrock/Kosmische Musik group Harmonia. Harmonia, was formed by the addition of Neu! guitarist Michael Rother to Cluster, the duo of Hans-Joachim Roedelius and Dieter Moebius.
Musik Von Harmonia was recorded from June to November, 1973 in Forst, Germany. It was first released on the Brain Records label in 1974. It was produced by the band members.

Ned Ragget's review for Allmusic opens: "The debut Harmonia album is at once a product of their source bands and a fine new twist on them, resulting in music that captures what for many is the Krautrock ideal..." He adds "...it's at once playful and murky, steady and mechanical, a supergroup of sorts who easily achieves and maintains such a seemingly overstated status by embracing a variety of approaches that work wonders."

It was Musik Von Harmonia that reportedly had Brian Eno proclaiming that Harmonia was "the world's most important rock band" at the time. Daniel Dumych, who cites that quote, writes in his article for hyperreal.org: "Perhaps Eno's reason for praising Harmonia so highly was that their music fit the requirements of ambient rock. Its music was equally suitable for active or passive listening. The careful listener found his/her attentions rewarded by the musical activities and sounds, but Harmonia's music was also capable of setting a sonic environment."

Musician, writer, and rock historian Julian Cope includes Musik Von Harmonia in his Top 50 Krautrock albums. As of September 4, 2021 Amazon.com ranks Musik Von Harmonia #78 among Krautrock albums in sales.

While there was an official CD release from German Polygram in 1992, this was deleted fairly quickly, leading to the appearance in 1994 of CDs on the Germanofon label. This dubious company (supposedly) based in Luxembourg released numerous Krautrock albums without proper authorization or paying royalties, in effect producing bootlegs that somehow found their way into mainstream distribution. The Germanofon CDs were transfers from vinyl LPs and generally were of inferior sound quality. There were official Japanese releases (again from Polygram) in the late 90's and early 00's, but the next official Western CD release was not until February 23, 2022 on the Motor Music label, a subsidiary of the Universal Music Group. It was also reissued in 2005, by the Russian label Lilith in 2006, and by the Revisited Records label in 2007.


"The terrible cheap & tacky sleeve put me off for years before I took the plunge - a garden of delights is inside though!"
- Julian Cope



Tracklisting
1. Watussi – 6:00
2. Sehr Kosmisch – 10:50
3. Sonnenschein – 3:50
4. Dino – 3:30
5. Ohrwurm – 5:05
6. Ahoi! – 5:00
7. Veterano – 3:55
7. Hausmusik – 4:30


Personnel

Hans-Joachim Roedelius – organ, piano, guitar, electric percussion
Michael Rother – guitar, piano, organ, electric percussion
Dieter Moebius – synthesizer, guitar, electric percussion


XLD Log
X Lossless Decoder version 20100302 (116.6)

XLD extraction logfile from 2022-03-22 15:23:54 +0100

Harmonia / Musik von Harmonia

Used drive : PIONEER DVD-RW DVR-K06A (revision Q631)

Use cdparanoia mode : YES (CDParanoia III 10.2 engine)
Disable audio cache : OK for the drive with cache less than 2750KB
Make use of C2 pointers : NO
Read offset correction : 48
Max retry count : 100

TOC of the extracted CD
Track | Start | Length | Start sector | End sector
---------------------------------------------------------
1 | 00:00:00 | 06:00:64 | 0 | 27063
2 | 06:00:64 | 10:58:04 | 27064 | 76417
3 | 16:58:68 | 03:56:11 | 76418 | 94128
4 | 20:55:04 | 03:32:15 | 94129 | 110043
5 | 24:27:19 | 05:09:54 | 110044 | 133272
6 | 29:36:73 | 05:14:44 | 133273 | 156866
7 | 34:51:42 | 03:58:37 | 156867 | 174753
8 | 38:50:04 | 04:32:69 | 174754 | 195222


All Tracks
Album gain : -4.11 dB
Peak : 0.969177

Track 01
Filename : /Users/Desktop/Harmonia - Musik von Harmonia (1974) [FLAC]/01 - Watussi.flac

Pre-gap length : 00:02:00

Track gain : -3.83 dB
Peak : 0.969147
CRC32 hash (test run) : 0AABC622
CRC32 hash : 0AABC622
CRC32 hash (skip zero) : 10F91614
AccurateRip signature : D48BB3B2
->Accurately ripped! (confidence 6)
Statistics
Read error : 0
Skipped (treated as error) : 0
Edge jitter error (maybe fixed) : 0
Atom jitter error (maybe fixed) : 0
Drift error (maybe fixed) : 0
Dropped bytes error (maybe fixed) : 0
Duplicated bytes error (maybe fixed) : 0
Inconsistency in error sectors : 0

Track 02
Filename : /Users/Desktop/Harmonia - Musik von Harmonia (1974) [FLAC]/02 - Sehr Kosmisch.flac

Pre-gap length : 00:02:20

Track gain : -1.46 dB
Peak : 0.969116
CRC32 hash (test run) : E6CEC0A4
CRC32 hash : E6CEC0A4
CRC32 hash (skip zero) : 8B4E2D70
AccurateRip signature : 1C258151
->Accurately ripped! (confidence 6)
Statistics
Read error : 0
Skipped (treated as error) : 0
Edge jitter error (maybe fixed) : 0
Atom jitter error (maybe fixed) : 0
Drift error (maybe fixed) : 0
Dropped bytes error (maybe fixed) : 0
Duplicated bytes error (maybe fixed) : 0
Inconsistency in error sectors : 0

Track 03
Filename : /Users/Desktop/Harmonia - Musik von Harmonia (1974) [FLAC]/03 - Sonnenschein.flac

Pre-gap length : 00:02:20

Track gain : -5.36 dB
Peak : 0.969177
CRC32 hash (test run) : 77D0DBC1
CRC32 hash : 77D0DBC1
CRC32 hash (skip zero) : C2C6295F
AccurateRip signature : 814BAA05
->Accurately ripped! (confidence 6)
Statistics
Read error : 0
Skipped (treated as error) : 0
Edge jitter error (maybe fixed) : 0
Atom jitter error (maybe fixed) : 0
Drift error (maybe fixed) : 0
Dropped bytes error (maybe fixed) : 0
Duplicated bytes error (maybe fixed) : 0
Inconsistency in error sectors : 0

Track 04
Filename : /Users/Desktop/Harmonia - Musik von Harmonia (1974) [FLAC]/04 - Dino.flac

Pre-gap length : 00:02:20

Track gain : -4.14 dB
Peak : 0.969147
CRC32 hash (test run) : 47F3981C
CRC32 hash : 47F3981C
CRC32 hash (skip zero) : 50D69D04
AccurateRip signature : 52003D60
->Accurately ripped! (confidence 6)
Statistics
Read error : 0
Skipped (treated as error) : 0
Edge jitter error (maybe fixed) : 0
Atom jitter error (maybe fixed) : 0
Drift error (maybe fixed) : 0
Dropped bytes error (maybe fixed) : 0
Duplicated bytes error (maybe fixed) : 0
Inconsistency in error sectors : 0

Track 05
Filename : /Users/Desktop/Harmonia - Musik von Harmonia (1974) [FLAC]/05 - Ohrwurm.flac

Pre-gap length : 00:02:20

Track gain : -3.85 dB
Peak : 0.947388
CRC32 hash (test run) : 310F0F3A
CRC32 hash : 310F0F3A
CRC32 hash (skip zero) : AA6829A6
AccurateRip signature : 96E67501
->Accurately ripped! (confidence 6)
Statistics
Read error : 0
Skipped (treated as error) : 0
Edge jitter error (maybe fixed) : 0
Atom jitter error (maybe fixed) : 0
Drift error (maybe fixed) : 0
Dropped bytes error (maybe fixed) : 0
Duplicated bytes error (maybe fixed) : 0
Inconsistency in error sectors : 0

Track 06
Filename : /Users/Desktop/Harmonia - Musik von Harmonia (1974) [FLAC]/06 - Ahoi!.flac

Pre-gap length : 00:02:20

Track gain : -0.51 dB
Peak : 0.672943
CRC32 hash (test run) : DD53A502
CRC32 hash : DD53A502
CRC32 hash (skip zero) : 092593A9
AccurateRip signature : BB24CF1B
->Accurately ripped! (confidence 6)
Statistics
Read error : 0
Skipped (treated as error) : 0
Edge jitter error (maybe fixed) : 0
Atom jitter error (maybe fixed) : 0
Drift error (maybe fixed) : 0
Dropped bytes error (maybe fixed) : 0
Duplicated bytes error (maybe fixed) : 0
Inconsistency in error sectors : 0

Track 07
Filename : /Users/Desktop/Harmonia - Musik von Harmonia (1974) [FLAC]/07 - Veterano.flac

Pre-gap length : 00:02:20

Track gain : -2.37 dB
Peak : 0.969177
CRC32 hash (test run) : 2E44BE33
CRC32 hash : 2E44BE33
CRC32 hash (skip zero) : 54493C7A
AccurateRip signature : FFA16178
->Accurately ripped! (confidence 6)
Statistics
Read error : 0
Skipped (treated as error) : 0
Edge jitter error (maybe fixed) : 0
Atom jitter error (maybe fixed) : 0
Drift error (maybe fixed) : 0
Dropped bytes error (maybe fixed) : 0
Duplicated bytes error (maybe fixed) : 0
Inconsistency in error sectors : 0

Track 08
Filename : /Users/Desktop/Harmonia - Musik von Harmonia (1974) [FLAC]/08 - Hausmusik.flac

Pre-gap length : 00:02:20

Track gain : -5.32 dB
Peak : 0.969177
CRC32 hash (test run) : F55A9C6B
CRC32 hash : F55A9C6B
CRC32 hash (skip zero) : 66C0F509
AccurateRip signature : 4BBEA9FE
->Accurately ripped! (confidence 6)
Statistics
Read error : 0
Skipped (treated as error) : 0
Edge jitter error (maybe fixed) : 0
Atom jitter error (maybe fixed) : 0
Drift error (maybe fixed) : 0
Dropped bytes error (maybe fixed) : 0
Duplicated bytes error (maybe fixed) : 0
Inconsistency in error sectors : 0

No errors occurred

End of status report





ADVERTISING » Download fast « ADVERTISING
Posted By: DarkMagus Date: 25 Mar 2022 19:29:40
Thanks again. Wondering if you have any of the Kluster records?
Posted By: SteveJobs Date: 25 Mar 2022 19:53:29
Sorry DarkMagus, Cluster 71 is the earliest album I have...
Posted By: DarkMagus Date: 25 Mar 2022 21:38:10
Cool, thanks for your great work.
Recent searches: