Loading...
Done
Home > Music
Vladimir Horowitz - Favorite Encores - 2004
Posted By : mfrwiz | Date : 19 Jan 2022 10:40:07 | Comments : 2

Vladimir Horowitz - Favorite Encores - 2004
Lossless (Ape Image File + Cue + Log + Audiochecker Log + Audio Identifier Report): 305 Mb | EAC Secure Mode Rip | Mp3 (Fraunhofer IIS - 320 kbps): 187 Mb | HQ Scans | Rar Files (3% Recovery)
Audio CD (February 24, 2022) - Number of Discs: 1 - Format: Extra tracks, Original Recording Remastered - Label: Sony Classical/Legacy - Catalog Number: SK 93075
Classical

Review: Horowitz encores. What should one add to that? A good blend of charming and bravura pieces. A DEFINITIVE MUST-HAVE!

Track Listing:

01 - Robert Schumann / Toccata, Op. 7 - 6:25
02 - Frederic Chopin / Etude, Op. 10, No. 3 - 3:35
03 - Alexander Scriabin / Etude, Op8, No. 12 - 2:19
04 - Moritz Moszkowski / Etude, Op. 72, No. 11 - 1:34
05 - Robert Schumann / Arabeske, Op. 18 - 7:12
06 - Frederic Chopin / Etude, Op. 10, No. 5 'Black Key' - 1:38
07 - Franz Schubert / Impromptu, Op. 90, No. 3 - 5:52
08 - Domenico Scarlatti / Sonata In E Major, K531 - 3:18
09 - Domenico Scarlatti / Sonata In A Major, K322 - 3:35
10 - Wolfgang Amadeus Mozart / Rondo All Turca From Sonata No. 11, K331 - 4:08
11 - Sergei Rachmaninoff / Prelude, Op. 32, No. 12 - 3:03
12 - Frederic Chopin / Etude, Op. 10, No. 12 'Revolutionary' - 2:42
13 - Alexander Scriabin / Etude, Op. 2, No. 1 - 3:08
14 - Frederic Chopin / Polonaise, Op. 53 'Heroic' - 6:29
15 - Claude Debussy / 'Serenade For The Doll' - 3:23
16 - Sergei Rachmaninoff / Etude - Tableau, Op. 33, No. 2 - 2:32
17 - Claude Debussy / L'Isle Joyeuse - 5:57
18 - Robert Schumann / 'Traumere!' - 2:50
19 - Vladimir Horowitz / Variations On A Theme From Bizet Carmen - 3:51
20 - Frederic Chopin / Etude, Op. 25, No. 1 'Aeolian Harp' - 2:27
21 - Frederic Chopin / Etude, Op. 25, No. 5 - 3:21

Running time: 1 hr. 19 min.
Performer: Vladimir Horowitz (Piano)

Composers:

Wolfgang Amadeus Mozart (1756 - 1791)
Robert Schumann (1810 - 1856)
Domenico Scarlatti (1685 - 1757)
Franz Schubert (1797 - 1828)
Vladimir Horowitz (1903 - 1989)
Moritz Moszkowski (1854 - 1925)
Claude Debussy (1862 - 1918)
Alexander Scriabin (1872 - 1915)
Sergei Rachmaninov (1873 - 1943)
Frédéric Chopin (1810 - 1849)


If you discover any dead links in any of my posts,
Please Send Me a Private Message !!!!

AUDIOCHECKER LOG
AUDIOCHECKER v2.0 beta (build 457) - by Dester - [email protected]
~~~~~~~~~~~~~~~~~~~~~~~~~~~~~~~~~~
-=== DO NOT EDIT THIS FILE! ===-

Path: ...\01J1pbqn

1 -=- Vladimir Horowitz - Favorite Encores.ape -=- CDDA (100%)

142127636

EAC LOG
Exact Audio Copy V0.99 prebeta 5 from 4. May 2009

EAC extraction logfile from 19. January 2010, 10:42

Vladimir Horowitz / Favorite Encores

Used drive : Pioneer BDR-203BK Adapter: 7 ID: 0

Read mode : Secure
Utilize accurate stream : Yes
Defeat audio cache : Yes
Make use of C2 pointers : No

Read offset correction : 667
Overread into Lead-In and Lead-Out : No
Fill up missing offset samples with silence : Yes
Delete leading and trailing silent blocks : No
Null samples used in CRC calculations : No
Used interface : Native Win32 interface for Win NT & 2000

Used output format : User Defined Encoder
Selected bitrate : 1024 kBit/s
Quality : High
Add ID3 tag : No
Command line compressor : C:\Programmi\Monkey's Audio\wapet.exe
Additional command line options : %d -t "Artist=%a" -t "Title=%t" -t "Album=%g" -t "Year=%y" -t "Track=%n" -t "Genre=%m" mac.exe %s %d -c2000 -v


TOC of the extracted CD

Track | Start | Length | Start sector | End sector
---------------------------------------------------------
1 | 0:00.00 | 6:24.45 | 0 | 28844
2 | 6:24.45 | 3:35.37 | 28845 | 45006
3 | 10:00.07 | 2:19.15 | 45007 | 55446
4 | 12:19.22 | 1:33.60 | 55447 | 62481
5 | 13:53.07 | 7:11.40 | 62482 | 94846
6 | 21:04.47 | 1:38.13 | 94847 | 102209
7 | 22:42.60 | 5:52.15 | 102210 | 128624
8 | 28:35.00 | 3:18.32 | 128625 | 143506
9 | 31:53.32 | 3:34.70 | 143507 | 159626
10 | 35:28.27 | 4:07.48 | 159627 | 178199
11 | 39:36.00 | 3:03.00 | 178200 | 191924
12 | 42:39.00 | 2:42.17 | 191925 | 204091
13 | 45:21.17 | 3:07.48 | 204092 | 218164
14 | 48:28.65 | 6:28.62 | 218165 | 247326
15 | 54:57.52 | 3:23.18 | 247327 | 262569
16 | 58:20.70 | 2:31.40 | 262570 | 273934
17 | 60:52.35 | 5:57.32 | 273935 | 300741
18 | 66:49.67 | 2:50.30 | 300742 | 313521
19 | 69:40.22 | 3:50.55 | 313522 | 330826
20 | 73:31.02 | 2:27.30 | 330827 | 341881
21 | 75:58.32 | 3:20.70 | 341882 | 356951


Range status and errors

Selected range

Filename O:\-=Music 4\-=Da Condividere\Horowitz - Encores\01J1pbqn\Vladimir Horowitz - Favorite Encores.wav

Peak level 100.0 %
Range quality 100.0 %
Copy CRC DAAC4E9B
Copy OK

No errors occurred

End of status report
ADVERTISING » Download fast

Torrent Download
« ADVERTISING
Posted By: musician3 Date: 19 Jan 2022 12:31:38
Great.......Thank You Very Much
Posted By: PaxEuropea Date: 19 Jan 2022 17:48:11
Immortal to many today and tomorrow!

Thanks!
DONATE AVAXHOME:

Donate please!