Loading...
Done
Home > Music
Gary Moore - Essential Montreux (Special Edition 5 CD Set)
Posted By : mfrwiz | Date : 03 Jan 2022 13:59:31 | Comments : 3

Gary Moore - Essential Montreux (Special Edition 5 CD Set)
Lossless (Flac Individual Files + Cue + Log + Audiochecker Log) | EAC Secure Mode Rip | Mp3 (Fraunhofer IIS - 320 kbps) | HQ Scans | Rar Files (3% Recovery)
Audio CD (June 16, 2022) - Number of Discs: 5 - Format: Box set, Live - Label: Eagle Rock - Catalog Number: EAGBX402
Blues, Blues/Rock

Biography: Many consider Gary Moore to be one of the most underappreciated guitarists in rock music, particularly in America where he has barely made an impression at all. Nonetheless he is often cited as an influence on the work of many other notable guitarists including Ozzy Osbourne’s axeman Randy Rhoads, and his fortunes are interweaved with the success of other well-considered artists.
Moore drew his own inspiration from the stalwarts of blues-rock, in particular Peter Green of Fleetwood Mac. His first taste of fame was as a member of Skid Row where he first met his future Thin Lizzy associate, Phil Lynott. After he left Skid Row in 1972 he chose to form his own group, the Gary Moore Band, but when their debut album failed to arouse any interest he decided to re-connect with his old bandmate Lynott. Moore didn’t play with Lizzy for long at first, though he did return to play with them from time to time throughout the 70s, including working with them on Lizzy’s seminal Black Rose (1979) album. He went on to do session work and to join Colosseum II though, once again, he didn’t stick around, working with them on three albums.
Moore’s second solo album generated the hit “Parisienne Walkways” -- recorded with Lynott on vocals -- and he created another new band G Force who lasted for only one album. In the 80s he put more energy into his solo work and enjoyed a run of European successes with albums released during this decade. His first album of the 90s marked a change of direction and the blues oriented Still Got the Blues became his best-selling offering. Subsequent albums evoked a similar sound, then in 1994 he formed the single album supergroup BBM. Since then he has continued to release solo albums which show his enduring fascination with blues and rock.


Product Description: This five-disc box collects as many complete concerts by Irish blues-rock guitarist Gary Moore, recorded in 1990, 1995, 1997, 1999, and 2001 at the Montreux Jazz Festival. Some might call this too much material, especially given the number of songs that recur (four versions of "All Your Love," three each of "Oh Pretty Woman," "Too Tired," and "You Don't Love Me," and two each of "The Blues Is Alright," "Further on Up the Road," "Need Your Love So Bad," "Parisienne Walkways," "Since I Met You Baby," "Still Got the Blues," "Stop Messing Around," and "Walking by Myself"), but there is in fact substantial variation from disc to disc. The obvious outlier is the 1990 disc, on which Moore is joined for four superlative songs by legendary Texas guitarist Albert Collins. But the 1997 concert finds Moore moving from straight Chicago-style blues to an alternative metal roar, the guitar cranked up ferociously loud and backed by a mix of live instruments, occasionally chintzy synths, and programmed beats. By 1999, he's returned to the blues, albeit a hard-rocking version that's still closer in spirit to Blueshammer than Buddy Guy. The 2001 set is a mixed bag, running the gamut from a restrained take on "Stormy Monday" to an almost punk rock sprint through Jimi Hendrix's "Fire" and the amp-frying closing instrumental "The Prophet." At each concert, he's backed by a sympathetic and skilled band (including horns in 1990 and 1995), which only draws attention to one of this set's biggest flaws -- the total lack of information. Concert dates are provided, but no personnel listings or songwriting credits. It's a shame that the backing musicians are so ill-served, but otherwise, any serious Moore fan would do well to pick this set up and spend an afternoon or two wallowing in six hours of screaming blues-rock guitar.

Reviews #1: Wow nice to get some quality audio releases from these incredible shows. This is a great collection of live shows from across the years for his amazing shows at Montreux. For fans of his hard rock years this set isn't for them. If you have been a fan of his across all aspects of his career then this is the set for you. Although some of his hard rock songs do show up on here it's the blues numbers that really shine. The set has been released (for the most part) on a two set DVD, there are several tracks that were not released on the set. This makes for a compelling reason to get this set. Is it expensive, Yes. Is it worth it, YES. The one thing I would like to see is more of the rest of his live career appear in a nice format like this, Would love a nice full live set from BBM or Colosseum II, or from his tour for the Black Rose LP with Thin Lizzy. Let's go Virgin Record either open the vaults yourself or have another smaller label do it. Wounded Bird Records comes to mind. Doesn't really matter who releases them let's just get them out to the fans. ~ Amazon Customer

#2: If you like Gary Moore, the blues, and live albums then this five CD box set is for you. The career of Gary Moore has now spanned four decades. He has been part of such groups as Thin Lizzy, Colosseum II, and BBM with Ginger Baker and Jack Bruce but it has been his solo work as a blues/rock fusion artist that has brought him the greatest acclaim. He remains one of the best guitarists alive today and has built up a formidable catalogue of close to forty albums. An important part of his ongoing legacy has been his performances at The Montreux Jazz Festival. Eagle Rock Entertainment has now gathered his five appearances and released them in one spectacular box set titled Essential Montreux. Disc one reaches back to 1990. He had just released his classic Still Got The Blues album and it forms the foundation for his twelve song set. He also mixes in some old blues tunes and his guitar work on Peter Green’s “Stop Messin’ Around” and Otis Rush’s “All Your Love” is inspired. A highlight is the guest appearance by legend Albert Collins on “Cold Cold Feeling.”
It would be five years before he returned to Montreux. Disc two presents his entire July 16, 2022 performance of fourteen tunes. The highlights are again a couple of Peter Green compositions from the first Fleetwood Mac album. “Long Grey Mare” and “Merry-Go-Round” both are modernized through his unique blues/rock fusion style. He made a quick return to Montreux during the summer of 1997. Six of the eleven tracks are live versions of material just released on his Dark Days In Paradise album. This was a polished performance as he brought along his regular band which included a keyboard player which gave the music a fuller sound. A terrific version of “Over The Hills” is presented which combines Irish music and Celtic mythology and is a fitting tribute to old friend Phil Lynott. His 1999 performance is presented on disc four and here he returns to some basic blues. He still has a keyboard player on board but now he uses it as a counterpoint for some tasty improvisation. His take of Little Willie John’s “Need Your Love So Bad” lives up to the original. He also proves that he is a formidable songwriter himself as his “Still Got The Blues” is played in all its pulsating glory. His final song is an almost jazz rendition of Phil Lynott’s “Parisienne Walkways” which is a direction he may need to explore more often. His Montreux saga concludes with his 2001 set. He had just released Back To The Blues and such songs as T. Bone Walker’s “Stormy Monday” and B.B. King’s “You Upset Me Baby” form part of his set. His cover of Jimi Hendrix’ “Fire” is a rare performance that comes close to the original. Gary Moore is above all a consummate guitar player and Essential Montreux finds him at his creative best. There is over six hours of music and it just flies by which is the best testament to his talent.

DISC 1 - 1990


Lossless: 543 Mb | Mp3 (Fraunhofer IIS - 320 kbps): 176 Mb | Label: Eagle Rock | Catalog Number: EAGBX402/A

Track Listing:

01 - All Your Love - 4:05
02 - Midnight Blues - 6:28
03 - You Don't Love Me - 3:50
04 - Texas Strut - 13:00
05 - Moving On - 2:54
06 - Too Tired - 3:49
07 - Cold Cold Feeling - 8:17
08 - Further On Up The Road - 5:28
09 - King Of The Blues - 6:27
10 - Stop Messing Around - 4:32
11 - The Blues Is Alright - 7:18
12 - The Messiah Will Come Again - 10:35

AUDIOCHECKER LOG
AUDIOCHECKER v2.0 beta (build 457) - by Dester - [email protected]
~~~~~~~~~~~~~~~~~~~~~~~~~~~~~~~~~~
-=== DO NOT EDIT THIS FILE! ===-

Path: ...\Disc 1

01 -=- 01 - All Your Love.flac -=- CDDA (100%)
02 -=- 02 - Midnight Blues.flac -=- CDDA (94%)
03 -=- 03 - You Don't Love Me.flac -=- CDDA (100%)
04 -=- 04 - Texas Strut.flac -=- CDDA (100%)
05 -=- 05 - Moving On.flac -=- CDDA (100%)
06 -=- 06 - Too Tired.flac -=- CDDA (100%)
07 -=- 07 - Cold Cold Feeling.flac -=- CDDA (87%)
08 -=- 08 - Further On Up The Road.flac -=- CDDA (99%)
09 -=- 09 - King Of The Blues.flac -=- CDDA (100%)
10 -=- 10 - Stop Messing Around.flac -=- CDDA (100%)
11 -=- 11 - The Blues Is Alright.flac -=- MPEG (95%)
12 -=- 12 - The Messiah Will Come Again.flac -=- CDDA (94%)

Summary 89,92% CDDA

173373204

EAC LOG
EAC extraction logfile from 17. June 2009, 21:13 for CD
Gary Moore / Essential Montreux (Disc 1 - 1990)

Used drive : FREECOM_DVD+/-RW16H8 Adapter: 4 ID: 1
Read mode : Secure with NO C2, accurate stream, disable cache
Read offset correction : 6
Overread into Lead-In and Lead-Out : No

Used output format : C:\Program Files\FLAC\flac.exe (User Defined Encoder)
128 kBit/s
Additional command line options : -8 -V -T "ARTIST=%a" -T "TITLE=%t" -T "ALBUM=%g" -T "DATE=%y" -T "TRACKNUMBER=%n" -T "GENRE=%m" -T "COMMENT=EAC Flac 1.1.2 -8" %s

Other options :
Fill up missing offset samples with silence : Yes
Delete leading and trailing silent blocks : No
Native Win32 interface for Win NT & 2000


Track 1
Filename F:\Gary Moore - Essential Montreux\Disc 1\01 - All Your Love.wav

Pre-gap length 0:00:02.00

Peak level 98.8 %
Track quality 100.0 %
Test CRC E66BD3C1
Copy CRC E66BD3C1
Copy OK

Track 2
Filename F:\Gary Moore - Essential Montreux\Disc 1\02 - Midnight Blues.wav

Peak level 98.8 %
Track quality 100.0 %
Test CRC D579461B
Copy CRC D579461B
Copy OK

Track 3
Filename F:\Gary Moore - Essential Montreux\Disc 1\03 - You Don't Love Me.wav

Peak level 98.8 %
Track quality 100.0 %
Test CRC 498FCAEE
Copy CRC 498FCAEE
Copy OK

Track 4
Filename F:\Gary Moore - Essential Montreux\Disc 1\04 - Texas Strut.wav

Peak level 98.8 %
Track quality 100.0 %
Test CRC 33308E08
Copy CRC 33308E08
Copy OK

Track 5
Filename F:\Gary Moore - Essential Montreux\Disc 1\05 - Moving On.wav

Peak level 98.8 %
Track quality 100.0 %
Test CRC 969A7A9E
Copy CRC 969A7A9E
Copy OK

Track 6
Filename F:\Gary Moore - Essential Montreux\Disc 1\06 - Too Tired.wav

Peak level 98.8 %
Track quality 100.0 %
Test CRC FDED1EB6
Copy CRC FDED1EB6
Copy OK

Track 7
Filename F:\Gary Moore - Essential Montreux\Disc 1\07 - Cold Cold Feeling.wav

Peak level 98.8 %
Track quality 100.0 %
Test CRC 20127AC7
Copy CRC 20127AC7
Copy OK

Track 8
Filename F:\Gary Moore - Essential Montreux\Disc 1\08 - Further On Up The Road.wav

Peak level 98.8 %
Track quality 100.0 %
Test CRC 0C32D784
Copy CRC 0C32D784
Copy OK

Track 9
Filename F:\Gary Moore - Essential Montreux\Disc 1\09 - King Of The Blues.wav

Peak level 98.8 %
Track quality 100.0 %
Test CRC EC49FCEB
Copy CRC EC49FCEB
Copy OK

Track 10
Filename F:\Gary Moore - Essential Montreux\Disc 1\10 - Stop Messing Around.wav

Peak level 98.8 %
Track quality 100.0 %
Test CRC 4B3F1AE7
Copy CRC 4B3F1AE7
Copy OK

Track 11
Filename F:\Gary Moore - Essential Montreux\Disc 1\11 - The Blues Is Alright.wav

Peak level 98.8 %
Track quality 100.0 %
Test CRC F0FA4B07
Copy CRC F0FA4B07
Copy OK

Track 12
Filename F:\Gary Moore - Essential Montreux\Disc 1\12 - The Messiah Will Come Again.wav

Peak level 98.8 %
Track quality 99.9 %
Test CRC 752F8FD8
Copy CRC 752F8FD8
Copy OK

No errors occured


End of status report

DISC 2 - 1995


Lossless: 517 Mb | Mp3 (Fraunhofer IIS - 320 kbps): 166 Mb | Label: Eagle Rock | Catalog Number: EAGBX402/B

Track Listing:

01 - If You Be My Baby - 5:54
02 - Long Grey Mare - 3:14
03 - Oh Pretty Woman - 5:05
04 - I Loved Another Woman - 6:19
05 - Merry-Go-Round - 5:38
06 - The Stumble - 3:21
07 - Need Your Love So Bad - 8:07
08 - You Don't Love Me - 5:14
09 - Key To Love - 2:22
10 - All Your Love - 4:16
11 - Since I Met You Baby - 3:27
12 - The Blues Is Alright - 8:55
13 - Stop Messing Around - 6:21
14 - Jumping At Shadows - 4:38

AUDIOCHECKER LOG
AUDIOCHECKER v2.0 beta (build 457) - by Dester - [email protected]
~~~~~~~~~~~~~~~~~~~~~~~~~~~~~~~~~~
-=== DO NOT EDIT THIS FILE! ===-

Path: ...\Disc 2

01 -=- 01 - If You Be My Baby.flac -=- CDDA (100%)
02 -=- 02 - Long Grey Mare.flac -=- MPEG (73%)
03 -=- 03 - Oh Pretty Woman.flac -=- CDDA (99%)
04 -=- 04 - I Loved Another Woman.flac -=- CDDA (94%)
05 -=- 05 - Merry-Go-Round.flac -=- CDDA (99%)
06 -=- 06 - The Stumble.flac -=- CDDA (100%)
07 -=- 07 - Need Your Love So Bad.flac -=- CDDA (99%)
08 -=- 08 - You Don't Love Me.flac -=- CDDA (100%)
09 -=- 09 - Key To Love.flac -=- CDDA (100%)
10 -=- 10 - All Your Love.flac -=- CDDA (99%)
11 -=- 11 - Since I Met You Baby.flac -=- CDDA (100%)
12 -=- 12 - The Blues Is Alright.flac -=- CDDA (100%)
13 -=- 13 - Stop Messing Around.flac -=- CDDA (100%)
14 -=- 14 - Jumping At Shadows.flac -=- CDDA (100%)

Summary 94,07% CDDA

58824180

EAC LOG
EAC extraction logfile from 18. June 2009, 22:23 for CD
Gary Moore / Essential Montreux (Disc 2 - 1995)

Used drive : FREECOM_DVD+/-RW16H8 Adapter: 4 ID: 1
Read mode : Secure with NO C2, accurate stream, disable cache
Read offset correction : 6
Overread into Lead-In and Lead-Out : No

Used output format : C:\Program Files\FLAC\flac.exe (User Defined Encoder)
128 kBit/s
Additional command line options : -8 -V -T "ARTIST=%a" -T "TITLE=%t" -T "ALBUM=%g" -T "DATE=%y" -T "TRACKNUMBER=%n" -T "GENRE=%m" -T "COMMENT=EAC Flac 1.1.2 -8" %s

Other options :
Fill up missing offset samples with silence : Yes
Delete leading and trailing silent blocks : No
Native Win32 interface for Win NT & 2000


Track 1
Filename F:\Gary Moore - Essential Montreux\Disc 2\01 - If You Be My Baby.wav

Pre-gap length 0:00:02.00

Peak level 98.8 %
Track quality 100.0 %
Test CRC B23FCF95
Copy CRC B23FCF95
Copy OK

Track 2
Filename F:\Gary Moore - Essential Montreux\Disc 2\02 - Long Grey Mare.wav

Peak level 98.8 %
Track quality 100.0 %
Test CRC 3AF4FD2D
Copy CRC 3AF4FD2D
Copy OK

Track 3
Filename F:\Gary Moore - Essential Montreux\Disc 2\03 - Oh Pretty Woman.wav

Peak level 98.8 %
Track quality 100.0 %
Test CRC AF540045
Copy CRC AF540045
Copy OK

Track 4
Filename F:\Gary Moore - Essential Montreux\Disc 2\04 - I Loved Another Woman.wav

Peak level 98.8 %
Track quality 100.0 %
Test CRC 21894FF4
Copy CRC 21894FF4
Copy OK

Track 5
Filename F:\Gary Moore - Essential Montreux\Disc 2\05 - Merry-Go-Round.wav

Peak level 98.8 %
Track quality 99.9 %
Test CRC 406D9423
Copy CRC 406D9423
Copy OK

Track 6
Filename F:\Gary Moore - Essential Montreux\Disc 2\06 - The Stumble.wav

Peak level 98.8 %
Track quality 100.0 %
Test CRC E0A13A17
Copy CRC E0A13A17
Copy OK

Track 7
Filename F:\Gary Moore - Essential Montreux\Disc 2\07 - Need Your Love So Bad.wav

Peak level 98.8 %
Track quality 100.0 %
Test CRC C3A03420
Copy CRC C3A03420
Copy OK

Track 8
Filename F:\Gary Moore - Essential Montreux\Disc 2\08 - You Don't Love Me.wav

Peak level 98.8 %
Track quality 100.0 %
Test CRC C1D50242
Copy CRC C1D50242
Copy OK

Track 9
Filename F:\Gary Moore - Essential Montreux\Disc 2\09 - Key To Love.wav

Peak level 98.8 %
Track quality 99.9 %
Test CRC 23FCF429
Copy CRC 23FCF429
Copy OK

Track 10
Filename F:\Gary Moore - Essential Montreux\Disc 2\10 - All Your Love.wav

Peak level 98.8 %
Track quality 100.0 %
Test CRC 00894BB0
Copy CRC 00894BB0
Copy OK

Track 11
Filename F:\Gary Moore - Essential Montreux\Disc 2\11 - Since I Met You Baby.wav

Peak level 98.8 %
Track quality 100.0 %
Test CRC 1E24988D
Copy CRC 1E24988D
Copy OK

Track 12
Filename F:\Gary Moore - Essential Montreux\Disc 2\12 - The Blues Is Alright.wav

Peak level 98.8 %
Track quality 99.9 %
Test CRC 64D8C0C7
Copy CRC 64D8C0C7
Copy OK

Track 13
Filename F:\Gary Moore - Essential Montreux\Disc 2\13 - Stop Messing Around.wav

Peak level 98.8 %
Track quality 100.0 %
Test CRC ED911661
Copy CRC ED911661
Copy OK

Track 14
Filename F:\Gary Moore - Essential Montreux\Disc 2\14 - Jumping At Shadows.wav

Peak level 98.8 %
Track quality 99.7 %
Test CRC 2169BBEA
Copy CRC 2169BBEA
Copy OK

No errors occured


End of status report

DISC 3 - 1997


Lossless: 547 Mb | Mp3 (Fraunhofer IIS - 320 kbps): 175 Mb | Label: Eagle Rock | Catalog Number: EAGBX402/C

Track Listing:

01 - One Good Reason - 3:09
02 - One Fine Day - 4:19
03 - Cold Wind Blows - 6:41
04 - I've Found My Love In You - 8:26
05 - Always There For You - 6:16
06 - Oh Pretty Woman - 4:38
07 - Walking By Myself - 4:16
08 - Business As Usual - 13:18
09 - Out In The Fields - 7:50
10 - Over The Hills And Far Away - 6:21
11 - Parisienne Walkways - 11:14

AUDIOCHECKER LOG
AUDIOCHECKER v2.0 beta (build 457) - by Dester - [email protected]
~~~~~~~~~~~~~~~~~~~~~~~~~~~~~~~~~~
-=== DO NOT EDIT THIS FILE! ===-

Path: ...\Disc 3

01 -=- 01 - One Good Reason.flac -=- CDDA (100%)
02 -=- 02 - One Fine Day.flac -=- CDDA (100%)
03 -=- 03 - Cold Wind Blows.flac -=- CDDA (100%)
04 -=- 04 - I've Found My Love In You.flac -=- CDDA (100%)
05 -=- 05 - Always There For You.flac -=- CDDA (100%)
06 -=- 06 - Oh Pretty Woman.flac -=- CDDA (100%)
07 -=- 07 - Walking By Myself.flac -=- CDDA (100%)
08 -=- 08 - Business As Usual.flac -=- CDDA (100%)
09 -=- 09 - Out In The Fields.flac -=- CDDA (99%)
10 -=- 10 - Over The Hills And Far Away.flac -=- CDDA (100%)
11 -=- 11 - Parisienne Walkways.flac -=- CDDA (99%)

Summary 99,82% CDDA

245267188

EAC LOG
EAC extraction logfile from 17. June 2009, 22:35 for CD
Gary Moore / Essential Montreux (Disc 3 - 1997)

Used drive : FREECOM_DVD+/-RW16H8 Adapter: 4 ID: 1
Read mode : Secure with NO C2, accurate stream, disable cache
Read offset correction : 6
Overread into Lead-In and Lead-Out : No

Used output format : C:\Program Files\FLAC\flac.exe (User Defined Encoder)
128 kBit/s
Additional command line options : -8 -V -T "ARTIST=%a" -T "TITLE=%t" -T "ALBUM=%g" -T "DATE=%y" -T "TRACKNUMBER=%n" -T "GENRE=%m" -T "COMMENT=EAC Flac 1.1.2 -8" %s

Other options :
Fill up missing offset samples with silence : Yes
Delete leading and trailing silent blocks : No
Native Win32 interface for Win NT & 2000


Track 1
Filename F:\Gary Moore - Essential Montreux\Disc 3\01 - One Good Reason.wav

Pre-gap length 0:00:02.00

Peak level 98.8 %
Track quality 100.0 %
Test CRC FFF0CB5F
Copy CRC FFF0CB5F
Copy OK

Track 2
Filename F:\Gary Moore - Essential Montreux\Disc 3\02 - One Fine Day.wav

Peak level 98.8 %
Track quality 100.0 %
Test CRC 188BBF44
Copy CRC 188BBF44
Copy OK

Track 3
Filename F:\Gary Moore - Essential Montreux\Disc 3\03 - Cold Wind Blows.wav

Peak level 98.8 %
Track quality 99.9 %
Test CRC E749AE39
Copy CRC E749AE39
Copy OK

Track 4
Filename F:\Gary Moore - Essential Montreux\Disc 3\04 - I've Found My Love In You.wav

Peak level 98.8 %
Track quality 100.0 %
Test CRC BE2B2443
Copy CRC BE2B2443
Copy OK

Track 5
Filename F:\Gary Moore - Essential Montreux\Disc 3\05 - Always There For You.wav

Peak level 98.8 %
Track quality 100.0 %
Test CRC 63E8DE06
Copy CRC 63E8DE06
Copy OK

Track 6
Filename F:\Gary Moore - Essential Montreux\Disc 3\06 - Oh Pretty Woman.wav

Peak level 98.8 %
Track quality 100.0 %
Test CRC 9B200121
Copy CRC 9B200121
Copy OK

Track 7
Filename F:\Gary Moore - Essential Montreux\Disc 3\07 - Walking By Myself.wav

Peak level 98.8 %
Track quality 100.0 %
Test CRC 360E0BAD
Copy CRC 360E0BAD
Copy OK

Track 8
Filename F:\Gary Moore - Essential Montreux\Disc 3\08 - Business As Usual.wav

Peak level 98.8 %
Track quality 100.0 %
Test CRC E7FE9BB8
Copy CRC E7FE9BB8
Copy OK

Track 9
Filename F:\Gary Moore - Essential Montreux\Disc 3\09 - Out In The Fields.wav

Peak level 98.8 %
Track quality 100.0 %
Test CRC 90663B46
Copy CRC 90663B46
Copy OK

Track 10
Filename F:\Gary Moore - Essential Montreux\Disc 3\10 - Over The Hills And Far Away.wav

Peak level 98.8 %
Track quality 100.0 %
Test CRC 9058ACDF
Copy CRC 9058ACDF
Copy OK

Track 11
Filename F:\Gary Moore - Essential Montreux\Disc 3\11 - Parisienne Walkways.wav

Peak level 98.8 %
Track quality 99.9 %
Test CRC 7ACE4B5A
Copy CRC 7ACE4B5A
Copy OK

No errors occured


End of status report

DISC 4 - 1999


Lossless: 509 Mb | Mp3 (Fraunhofer IIS - 320 kbps): 165 Mb | Label: Eagle Rock | Catalog Number: EAGBX402/D

Track Listing:

01 - Walking By Myself - 4:14
02 - Since I Met You Baby - 3:38
03 - Need Your Love So Bad - 7:22
04 - Tore Down - 4:01
05 - You Don't Love Me - 4:44
06 - All Your Love - 4:32
07 - Still Got The Blues - 6:35
08 - Too Tired - 4:25
09 - The Sky Is Crying - 11:34
10 - Further On Up The Road - 6:22
11 - Fire - 3:09
12 - Parisienne Walkways - 11:31

AUDIOCHECKER LOG
AUDIOCHECKER v2.0 beta (build 457) - by Dester - [email protected]
~~~~~~~~~~~~~~~~~~~~~~~~~~~~~~~~~~
-=== DO NOT EDIT THIS FILE! ===-

Path: ...\Disc 4

01 -=- 01 - Walking By Myself.flac -=- CDDA (100%)
02 -=- 02 - Since I Met You Baby.flac -=- CDDA (100%)
03 -=- 03 - Need Your Love So Bad.flac -=- CDDA (100%)
04 -=- 04 - Tore Down.flac -=- CDDA (100%)
05 -=- 05 - You Don't Love Me.flac -=- CDDA (100%)
06 -=- 06 - All Your Love.flac -=- CDDA (100%)
07 -=- 07 - Still Got The Blues.flac -=- CDDA (99%)
08 -=- 08 - Too Tired.flac -=- CDDA (100%)
09 -=- 09 - The Sky Is Crying.flac -=- CDDA (100%)
10 -=- 10 - Further On Up The Road.flac -=- CDDA (100%)
11 -=- 11 - Fire.flac -=- CDDA (100%)
12 -=- 12 - Parisienne Walkways.flac -=- CDDA (99%)

Summary 99,83% CDDA

250664740

EAC LOG
EAC extraction logfile from 17. June 2009, 23:07 for CD
Gary Moore / Essential Montreux (Disc 4 - 1999)

Used drive : FREECOM_DVD+/-RW16H8 Adapter: 4 ID: 1
Read mode : Secure with NO C2, accurate stream, disable cache
Read offset correction : 6
Overread into Lead-In and Lead-Out : No

Used output format : C:\Program Files\FLAC\flac.exe (User Defined Encoder)
128 kBit/s
Additional command line options : -8 -V -T "ARTIST=%a" -T "TITLE=%t" -T "ALBUM=%g" -T "DATE=%y" -T "TRACKNUMBER=%n" -T "GENRE=%m" -T "COMMENT=EAC Flac 1.1.2 -8" %s

Other options :
Fill up missing offset samples with silence : Yes
Delete leading and trailing silent blocks : No
Native Win32 interface for Win NT & 2000


Track 1
Filename F:\Gary Moore - Essential Montreux\Disc 4\01 - Walking By Myself.wav

Pre-gap length 0:00:02.00

Peak level 98.8 %
Track quality 100.0 %
Test CRC 0E2AD920
Copy CRC 0E2AD920
Copy OK

Track 2
Filename F:\Gary Moore - Essential Montreux\Disc 4\02 - Since I Met You Baby.wav

Peak level 98.8 %
Track quality 99.9 %
Test CRC A62EEED7
Copy CRC A62EEED7
Copy OK

Track 3
Filename F:\Gary Moore - Essential Montreux\Disc 4\03 - Need Your Love So Bad.wav

Peak level 98.8 %
Track quality 99.9 %
Test CRC 237AC153
Copy CRC 237AC153
Copy OK

Track 4
Filename F:\Gary Moore - Essential Montreux\Disc 4\04 - Tore Down.wav

Peak level 98.8 %
Track quality 100.0 %
Test CRC B443DF41
Copy CRC B443DF41
Copy OK

Track 5
Filename F:\Gary Moore - Essential Montreux\Disc 4\05 - You Don't Love Me.wav

Peak level 98.8 %
Track quality 100.0 %
Test CRC 4D051BF5
Copy CRC 4D051BF5
Copy OK

Track 6
Filename F:\Gary Moore - Essential Montreux\Disc 4\06 - All Your Love.wav

Peak level 98.8 %
Track quality 100.0 %
Test CRC F19C67E1
Copy CRC F19C67E1
Copy OK

Track 7
Filename F:\Gary Moore - Essential Montreux\Disc 4\07 - Still Got The Blues.wav

Peak level 98.8 %
Track quality 99.9 %
Test CRC 60276CC4
Copy CRC 60276CC4
Copy OK

Track 8
Filename F:\Gary Moore - Essential Montreux\Disc 4\08 - Too Tired.wav

Peak level 98.8 %
Track quality 100.0 %
Test CRC 28B38898
Copy CRC 28B38898
Copy OK

Track 9
Filename F:\Gary Moore - Essential Montreux\Disc 4\09 - The Sky Is Crying.wav

Peak level 98.8 %
Track quality 100.0 %
Test CRC 00F1B674
Copy CRC 00F1B674
Copy OK

Track 10
Filename F:\Gary Moore - Essential Montreux\Disc 4\10 - Further On Up The Road.wav

Peak level 98.8 %
Track quality 100.0 %
Test CRC 43EA1247
Copy CRC 43EA1247
Copy OK

Track 11
Filename F:\Gary Moore - Essential Montreux\Disc 4\11 - Fire.wav

Peak level 98.8 %
Track quality 100.0 %
Test CRC 6220F51B
Copy CRC 6220F51B
Copy OK

Track 12
Filename F:\Gary Moore - Essential Montreux\Disc 4\12 - Parisienne Walkways.wav

Peak level 98.8 %
Track quality 100.0 %
Test CRC 685312A1
Copy CRC 685312A1
Copy OK

No errors occured


End of status report

DISC 5 - 2001


Lossless: 492 Mb | Mp3 (Fraunhofer IIS - 320 kbps): 157 Mb | Label: Eagle Rock | Catalog Number: EAGBX402/E

Track Listing:

01 - You Upset Me Baby - 3:21
02 - Cold Black Night - 4:20
03 - Stormy Monday - 7:15
04 - Oh Pretty Woman - 4:42
05 - All Your Love - 5:14
06 - Still Got The Blues - 7:16
07 - Too Tired - 9:51
08 - How Many Lies - 7:27
09 - Fire - 3:56
10 - Enough Of The Blues - 8:06
11 - The Prophet - 7:15

If you discover any dead links in any of my posts,
Please Send Me a Private Message !!!!

AUDIOCHECKER LOG
AUDIOCHECKER v2.0 beta (build 457) - by Dester - [email protected]
~~~~~~~~~~~~~~~~~~~~~~~~~~~~~~~~~~
-=== DO NOT EDIT THIS FILE! ===-

Path: ...\Disc 5

01 -=- 01 - You Upset Me Baby.flac -=- CDDA (100%)
02 -=- 02 - Cold Black Night.flac -=- CDDA (100%)
03 -=- 03 - Stormy Monday.flac -=- CDDA (100%)
04 -=- 04 - Oh Pretty Woman.flac -=- CDDA (100%)
05 -=- 05 - All Your Love.flac -=- CDDA (100%)
06 -=- 06 - Still Got The Blues.flac -=- CDDA (100%)
07 -=- 07 - Too Tired.flac -=- CDDA (100%)
08 -=- 08 - How Many Lies.flac -=- CDDA (100%)
09 -=- 09 - Fire.flac -=- CDDA (100%)
10 -=- 10 - Enough Of The Blues.flac -=- CDDA (99%)
11 -=- 11 - The Prophet.flac -=- CDDA (100%)

Summary 99,91% CDDA

79505348

EAC LOG
EAC extraction logfile from 17. June 2009, 23:41 for CD
Gary Moore / Essential Montreux (Disc 5 - 2001)

Used drive : FREECOM_DVD+/-RW16H8 Adapter: 4 ID: 1
Read mode : Secure with NO C2, accurate stream, disable cache
Read offset correction : 6
Overread into Lead-In and Lead-Out : No

Used output format : C:\Program Files\FLAC\flac.exe (User Defined Encoder)
128 kBit/s
Additional command line options : -8 -V -T "ARTIST=%a" -T "TITLE=%t" -T "ALBUM=%g" -T "DATE=%y" -T "TRACKNUMBER=%n" -T "GENRE=%m" -T "COMMENT=EAC Flac 1.1.2 -8" %s

Other options :
Fill up missing offset samples with silence : Yes
Delete leading and trailing silent blocks : No
Native Win32 interface for Win NT & 2000


Track 1
Filename F:\Gary Moore - Essential Montreux\Disc 5\01 - You Upset Me Baby.wav

Pre-gap length 0:00:02.00

Peak level 98.8 %
Track quality 100.0 %
Test CRC 595A08F8
Copy CRC 595A08F8
Copy OK

Track 2
Filename F:\Gary Moore - Essential Montreux\Disc 5\02 - Cold Black Night.wav

Peak level 98.8 %
Track quality 99.9 %
Test CRC CDE0A9CC
Copy CRC CDE0A9CC
Copy OK

Track 3
Filename F:\Gary Moore - Essential Montreux\Disc 5\03 - Stormy Monday.wav

Peak level 98.8 %
Track quality 99.9 %
Test CRC DE76CA92
Copy CRC DE76CA92
Copy OK

Track 4
Filename F:\Gary Moore - Essential Montreux\Disc 5\04 - Oh Pretty Woman.wav

Peak level 98.8 %
Track quality 100.0 %
Test CRC F9606618
Copy CRC F9606618
Copy OK

Track 5
Filename F:\Gary Moore - Essential Montreux\Disc 5\05 - All Your Love.wav

Peak level 98.8 %
Track quality 100.0 %
Test CRC 4BFB7909
Copy CRC 4BFB7909
Copy OK

Track 6
Filename F:\Gary Moore - Essential Montreux\Disc 5\06 - Still Got The Blues.wav

Peak level 98.8 %
Track quality 100.0 %
Test CRC DB4C97AE
Copy CRC DB4C97AE
Copy OK

Track 7
Filename F:\Gary Moore - Essential Montreux\Disc 5\07 - Too Tired.wav

Peak level 98.8 %
Track quality 100.0 %
Test CRC 1116F16C
Copy CRC 1116F16C
Copy OK

Track 8
Filename F:\Gary Moore - Essential Montreux\Disc 5\08 - How Many Lies.wav

Peak level 98.8 %
Track quality 100.0 %
Test CRC 4C2D03FC
Copy CRC 4C2D03FC
Copy OK

Track 9
Filename F:\Gary Moore - Essential Montreux\Disc 5\09 - Fire.wav

Peak level 98.8 %
Track quality 100.0 %
Test CRC FC65F96D
Copy CRC FC65F96D
Copy OK

Track 10
Filename F:\Gary Moore - Essential Montreux\Disc 5\10 - Enough Of The Blues.wav

Peak level 98.8 %
Track quality 100.0 %
Test CRC 925D76A0
Copy CRC 925D76A0
Copy OK

Track 11
Filename F:\Gary Moore - Essential Montreux\Disc 5\11 - The Prophet.wav

Peak level 98.8 %
Track quality 100.0 %
Test CRC C10A24C0
Copy CRC C10A24C0
Copy OK

No errors occured


End of status report
ADVERTISING » Download fast « ADVERTISING
Posted By: wersollsschonsein Date: 03 Jan 2022 14:29:08
Cheers & Happy New Year from Ireland.
Posted By: busybeingborn Date: 03 Jan 2022 14:39:50
Molte grazie!
Posted By: raultin Date: 03 Jan 2022 23:08:06
muchas gracias desde Argentina
DONATE AVAXHOME:

Donate please!