Loading...
Done
Home > Music
Posted By : tiburon | Date : 17 Sep 2021 22:51:20 | Comments : 1 |

Earl Klugh - Dream Come True (1980) {EMI 748388}
EAC 0.99pb4 | FLAC tracks level 8 | Cue+Log+M3u | Full Scans 600dpi | 210 MB + 3% Recovery
Genre: Smooth Jazz,Jazz Funk

Dream Come True" brings on the funk, as well as beautiful ballads, light calypso touches, even a little countrified soul complete with steel guitar. Simply stated, this is my favorite Earl Klugh album in a long line of quality work.



Track List

01. If It's In Your Heart (It's In Your Smile)
02. Doc
03. Amazon
04. I Don't Want To Leave You Alone Anymore
05. Spellbound
06. Sweet Rum And Starlight
07. Dream Come True
08. Message To Michael

musicians

Earl Klugh - guitar
Marcus Miller - bass
Greg Phillinganes - arranger
Mikie Roquemore - piano,clavinet
David Saltman - bass
Reggie Young - electric guitar
Hubie Crawford - bass
Frank Floyd - vocal
David Briggs - piano,electric piano
Lloyd Green - pedal steel
David Matthews - arranger,conductor
James Bradley, Jr. - drums
Krystal Davis - vocals
Dr. Gibbs - percussion
Gene Dunlap - drums,tambourine
Daryl Dybka - electric piano
Perry Hughes - electric guitar
Mike Leech - Bass
Yvonne Lewis - Vocals


Produced by Earl Klugh

EAC Logfile

Exact Audio Copy V0.99 prebeta 4 from 23. January 2008

EAC extraction logfile from 3. July 2009, 0:07

Earl Klugh / Dream Come True

Used drive : PLEXTOR CD-R PREMIUM2 Adapter: 1 ID: 1

Read mode : Secure
Utilize accurate stream : Yes
Defeat audio cache : Yes
Make use of C2 pointers : No

Read offset correction : 30
Overread into Lead-In and Lead-Out : No
Fill up missing offset samples with silence : Yes
Delete leading and trailing silent blocks : No
Null samples used in CRC calculations : Yes
Used interface : Installed external ASPI interface
Gap handling : Appended to previous track

Used output format : User Defined Encoder
Selected bitrate : 32 kBit/s
Quality : High
Add ID3 tag : No
Command line compressor : C:\Programmi\FLAC\flac.exe
Additional command line options : -8 -V -T "ARTIST=%a" -T "TITLE=%t" -T "ALBUM=%g" -T "DATE=%y" -T "TRACKNUMBER=%n" -T "GENRE=%m" -T "COMMENT=EAC FLAC -8" %s


TOC of the extracted CD

Track | Start | Length | Start sector | End sector
---------------------------------------------------------
1 | 0:00.33 | 4:12.25 | 33 | 18957
2 | 4:12.58 | 4:49.45 | 18958 | 40677
3 | 9:02.28 | 4:03.57 | 40678 | 58959
4 | 13:06.10 | 4:49.23 | 58960 | 80657
5 | 17:55.33 | 6:14.25 | 80658 | 108732
6 | 24:09.58 | 4:02.55 | 108733 | 126937
7 | 28:12.38 | 3:35.67 | 126938 | 143129
8 | 31:48.30 | 5:54.25 | 143130 | 169704


Track 1

Filename D:\My Rip\01 - If It's In Your Heart (It's In Your Smile).wav

Pre-gap length 0:00:02.44

Peak level 94.0 %
Track quality 99.9 %
Test CRC B86E43D2
Copy CRC B86E43D2
Accurately ripped (confidence 5) [B4043597]
Copy OK

Track 2

Filename D:\My Rip\02 - Doc.wav

Pre-gap length 0:00:00.86

Peak level 88.1 %
Track quality 100.0 %
Test CRC 24FBDADA
Copy CRC 24FBDADA
Accurately ripped (confidence 5) [D9ECA0E3]
Copy OK

Track 3

Filename D:\My Rip\03 - Amazon.wav

Pre-gap length 0:00:00.97

Peak level 96.6 %
Track quality 99.9 %
Test CRC 5B7F5127
Copy CRC 5B7F5127
Accurately ripped (confidence 5) [A5066E95]
Copy OK

Track 4

Filename D:\My Rip\04 - I Don't Want To Leave You Alone Anymore.wav

Pre-gap length 0:00:00.33

Peak level 64.7 %
Track quality 100.0 %
Test CRC 24CCF537
Copy CRC 24CCF537
Accurately ripped (confidence 5) [25883F79]
Copy OK

Track 5

Filename D:\My Rip\05 - Spellbound.wav

Pre-gap length 0:00:00.13

Peak level 67.2 %
Track quality 100.0 %
Test CRC 2711F973
Copy CRC 2711F973
Accurately ripped (confidence 5) [10999729]
Copy OK

Track 6

Filename D:\My Rip\06 - Sweet Rum And Starlight.wav

Pre-gap length 0:00:00.73

Peak level 76.4 %
Track quality 99.9 %
Test CRC 53A8E0EE
Copy CRC 53A8E0EE
Accurately ripped (confidence 5) [AEC0C644]
Copy OK

Track 7

Filename D:\My Rip\07 - Dream Come True.wav

Pre-gap length 0:00:01.10

Peak level 86.2 %
Track quality 100.0 %
Test CRC 75854AB1
Copy CRC 75854AB1
Accurately ripped (confidence 5) [11B51FB7]
Copy OK

Track 8

Filename D:\My Rip\08 - Message To Michael.wav

Pre-gap length 0:00:00.29

Peak level 93.5 %
Track quality 99.9 %
Test CRC 2B92D4D8
Copy CRC 2B92D4D8
Accurately ripped (confidence 4) [9500850C]
Copy OK


All tracks accurately ripped

No errors occurred

End of status report






The Files Are Interchangeable





ADVERTISING » High Speed Download « ADVERTISING




Posted By: eisler444 Date: 18 Sep 2021 02:25:39
Спасибо!!!
Recent searches: