Loading...
Done
Home > Music
D'Angelo - Voodoo (2000)
Posted By : MeisterLee | Date : 28 Dec 2021 14:16:43 | Comments : 1

D'Angelo - Voodoo] (2000)
EAC AccurateRip | FLAC | LOG, no CUE | Scans | 13 Tracks | 01:18:59 min
465 MB | Label: EMI | CD Nr. 7243-5-23373-2-3
R&B

Five years after his Brown Sugar album helped launch contemporary R&B, D'Angelo finally returned with his sophomore effort, Voodoo. His soulful voice is just as sweet as it was on Brown Sugar, though D'Angelo stretches out with a varied cast of collaborators, including trumpeter Roy Hargrove and guitarist Charlie Hunter, fellow neo-soul stars Lauryn Hill and Raphael Saadiq, and hip-hop heads like DJ Premier, Method Man & Redman, and Q-Tip. It must have been difficult to match his debut (and the frequent delays prove it was on his mind), but Voodoo is just as rewarding a soul album as D'Angelo's first.



















D'Angelo - Voodoo

01. Playa Playa 07:07
02. Devil's Pie 05:21
03. Left & Right (feat. Method Man & Redman) 04:46
04. The Line 05:15
05. Send It On 05:57
06. Chicken Grease 04:36
07. One Mo'gin 06:15
08. The Root 06:33
09. Spanish Joint 05:44
10. Feel Like Makin' Love 06:22
11. Greatdayndamornin'/Booty 07:35
12. Untitled (How Does It Feel) 07:10
13. Africa 06:13



log
Exact Audio Copy V0.99 prebeta 5 from 4. May 2009

EAC Auslese-Logdatei vom 28. Dezember 2009, 4:04

D'Angelo / Voodoo

Benutztes Laufwerk : TSSTcorpDVD-ROM SH-D162C Adapter: 4 ID: 1



TOC der ausgelesenen CD

Track | Start | Länge | Startsektor | Endsektor
-------------------------------------------------------
1 | 0:00.00 | 7:07.67 | 0 | 32091
2 | 7:07.67 | 5:21.53 | 32092 | 56219
3 | 12:29.45 | 4:46.37 | 56220 | 77706
4 | 17:16.07 | 5:15.48 | 77707 | 101379
5 | 22:31.55 | 5:57.07 | 101380 | 128161
6 | 28:28.62 | 4:36.40 | 128162 | 148901
7 | 33:05.27 | 6:15.08 | 148902 | 177034
8 | 39:20.35 | 6:33.05 | 177035 | 206514
9 | 45:53.40 | 5:44.40 | 206515 | 232354
10 | 51:38.05 | 6:22.07 | 232355 | 261011
11 | 58:00.12 | 7:35.43 | 261012 | 295179
12 | 65:35.55 | 7:10.17 | 295180 | 327446
13 | 72:45.72 | 6:13.70 | 327447 | 355491


Track 1

D'Angelo - Voodoo [2000]\01. Playa Playa.wav

Pausenlänge 0:00:02.00

Spitzenpegel 98.8 %
Test CRC 5E064109
Kopie CRC 5E064109
Akkurat gelesen (Zuversicht 38) [E09A69EE]
Kopie OK

Track 2

D'Angelo - Voodoo [2000]\02. Devil's Pie.wav

Spitzenpegel 98.8 %
Test CRC C9EE28ED
Kopie CRC C9EE28ED
Akkurat gelesen (Zuversicht 38) [E9A84F70]
Kopie OK

Track 3

D'Angelo - Voodoo [2000]\03. Left & Right (feat. Method Man & Redman).wav

Timing Problem 0:03:43

Spitzenpegel 98.8 %
Test CRC 62B00D9E
Kopie CRC 62B00D9E
Akkurat gelesen (Zuversicht 38) [CB015C07]
Kopie beendet

Track 4

D'Angelo - Voodoo [2000]\04. The Line.wav

Spitzenpegel 98.8 %
Test CRC 6BD8CD5F
Kopie CRC 6BD8CD5F
Akkurat gelesen (Zuversicht 38) [B1BA6C27]
Kopie OK

Track 5

D'Angelo - Voodoo [2000]\05. Send It On.wav

Spitzenpegel 98.8 %
Test CRC CF09F344
Kopie CRC CF09F344
Akkurat gelesen (Zuversicht 38) [601664DC]
Kopie OK

Track 6

D'Angelo - Voodoo [2000]\06. Chicken Grease.wav

Spitzenpegel 98.8 %
Test CRC 607F8DEC
Kopie CRC 607F8DEC
Akkurat gelesen (Zuversicht 38) [D3D44B70]
Kopie OK

Track 7

D'Angelo - Voodoo [2000]\07. One Mo'gin.wav

Spitzenpegel 98.8 %
Test CRC 3D827262
Kopie CRC 3D827262
Akkurat gelesen (Zuversicht 38) [74EEA8CB]
Kopie OK

Track 8

D'Angelo - Voodoo [2000]\08. The Root.wav

Spitzenpegel 98.8 %
Test CRC 85C19CB3
Kopie CRC 85C19CB3
Akkurat gelesen (Zuversicht 38) [6A306A6B]
Kopie OK

Track 9

D'Angelo - Voodoo [2000]\09. Spanish Joint.wav

Spitzenpegel 98.8 %
Test CRC F5209972
Kopie CRC F5209972
Akkurat gelesen (Zuversicht 38) [A7B4D7D9]
Kopie OK

Track 10

D'Angelo - Voodoo [2000]\10. Feel Like Makin' Love.wav

Spitzenpegel 98.8 %
Test CRC 5090D8FE
Kopie CRC 5090D8FE
Akkurat gelesen (Zuversicht 37) [A967088E]
Kopie OK

Track 11

D'Angelo - Voodoo [2000]\11. Greatdayndamornin',Booty.wav

Spitzenpegel 98.8 %
Test CRC 613B1AFE
Kopie CRC 613B1AFE
Akkurat gelesen (Zuversicht 38) [25DE31CE]
Kopie OK

Track 12

D'Angelo - Voodoo [2000]\12. Untitled (How Does It Feel).wav

Spitzenpegel 98.8 %
Test CRC 53926A21
Kopie CRC 53926A21
Akkurat gelesen (Zuversicht 39) [0009B7EA]
Kopie OK

Track 13

D'Angelo - Voodoo [2000]\13. Africa.wav

Pausenlänge 0:00:02.32

Spitzenpegel 98.8 %
Test CRC 7CD95D41
Kopie CRC 7CD95D41
Akkurat gelesen (Zuversicht 37) [CC95A9F0]
Kopie OK


Alle Tracks wurden akkurat gelesen

Keine Fehler aufgetreten

Ende des Statusreports




Rapidshare


http://rapidshare.com/files/326883765/DAngVoodoo.part1.rar
http://rapidshare.com/files/326887383/DAngVoodoo.part2.rar
http://rapidshare.com/files/326890901/DAngVoodoo.part3.rar
http://rapidshare.com/files/326894413/DAngVoodoo.part4.rar
http://rapidshare.com/files/326880310/DAngVoodoo.part5.rar
ADVERTISING » Download fast « ADVERTISING
Posted By: Maatje Date: 28 Dec 2021 18:44:56
thank you very much for the excellent D'Angelo!!
DONATE AVAXHOME:

Donate please!