Loading...
Done
Home > Music
Hans Theessink Band - Bridges - 2004 [Hybrid SACD]
Posted By : mfrwiz | Date : 02 Feb 2022 23:26:16 | Comments : 2

Hans Theessink Band - Bridges - 2004 [Hybrid SACD]
WavPack (Img + Cue + Log + Audio Identifier Report Included): 466 Mb | EAC Secure Mode Rip | Mp3 (Fraunhofer IIS - 320 kbps): 243 Mb | HQ Scans | Rar Files (3% Recovery)
Audio CD (April 30, 2022) - Number of Discs: 1 - Format: Hybrid SACD - Label: Blue Groove - Catalog Number: BG-1520
Blues, Acoustic Blues

Biography: Dutch blues guitarist, singer, and songwriter Hans Theesink has been carving a niche for himself in the U.S. market throughout the late 1980s and early '90s. It's no easy task growing up in the Netherlands and teaching oneself the blues, but perhaps that's the reason Theesink's guitar stylings are so unique. Theesink became hooked on blues as a teenager listening to the radio, playing mandolin and guitar. His favorites became Big Bill Broonzy, Sonny Terry, and Brownie McGhee, but later on he was exposed to a wider variety of influences. Theesink was 12 or 13 when he began playing guitar in earnest, and by his late teens he was playing in clubs and coffeehouses around Germany and the Netherlands.

Theesink began his recording career in 1970 for a variety of small labels in the Netherlands and Germany, and continued perfecting his craft and honing his skills at clubs and festivals across Europe. Through the '70s, his eventual goal was to come to America to learn firsthand from the masters in the Mississippi Delta. It would be 1979 before Theesink would make it to America, and not surprisingly, his first stop was the Mississippi Delta. The trip proved fruitful, as he met and jammed with many Delta musicians, absorbing all he could from them and eventually incorporating their knowledge into his own style.


Product Description: The title of the album Bridges stands for many things, including the creative musical interpretation of the blues as played by Theessink and demonstrated sublimely on this CD. But Bridges also stands for the bond between his musicians from Austria, Zimbabwe and Theessink’s country of origin, the Netherlands. Bridges represents not only the peaceful, people-connecting blues music, it also stands for all the bridges destroyed by war that must be rebuilt. Theessink was deeply touched by the events in former Yugoslavia. Bridges evokes emotions in the listener, stimulating the imagination, leaving a free and open space to be filled with personal feelings, thoughts and memories.

Track Listing:

01 - Behind The Sun - 4:50
02 - Believe The Devil Took Her Hand - 4:56
03 - Bridges - 3:22
04 - Dream - 4:45
05 - Circles - 4:10
06 - Running Home - 3:51
07 - Brand New Dawn - 3:07
08 - Zambezi - 3:45
09 - Moses - 4:53
10 - Odyssey - 3:54
11 - People Get Ready - 3:25
12 - What Will The Children Play - 6:42
13 - Rain - 7:14
14 - Little Girl - 3:40
15 - Mbube - 6:44
16 - Deadly Combination (bonus) - 7:42
Personnel:

Hans Theessink - Guitar, Vocals (NL)
Roland Guggenbichler - Keyboards (AUT)
Erich Buchebner - Bass (AUT)
Harry Stampfer - Drums (AUT)
Insingizi - Bg Voc (Zimbabwe)



If you discover any dead links in any of my posts,
Please Send Me a Private Message !!!!

EAC LOG
Exact Audio Copy V0.99 prebeta 5 from 4. May 2009

EAC extraction logfile from 2. February 2010, 19:53

Hans Theessink Band / Bridges

Used drive : Pioneer BDR-203BK Adapter: 8 ID: 0

Read mode : Secure
Utilize accurate stream : Yes
Defeat audio cache : Yes
Make use of C2 pointers : No

Read offset correction : 667
Overread into Lead-In and Lead-Out : No
Fill up missing offset samples with silence : Yes
Delete leading and trailing silent blocks : No
Null samples used in CRC calculations : Yes
Used interface : Native Win32 interface for Win NT & 2000

Used output format : User Defined Encoder
Selected bitrate : 128 kBit/s
Quality : High
Add ID3 tag : No
Command line compressor : C:\WINDOWS\system32\wavpack-4.60.1\wavpack.exe
Additional command line options : -hmx3 -w "Year=%y" -w "Genre=%m" %s %d


TOC of the extracted CD

Track | Start | Length | Start sector | End sector
---------------------------------------------------------
1 | 0:00.00 | 4:49.64 | 0 | 21738
2 | 4:49.64 | 4:55.42 | 21739 | 43905
3 | 9:45.31 | 3:22.21 | 43906 | 59076
4 | 13:07.52 | 4:44.57 | 59077 | 80433
5 | 17:52.34 | 4:10.24 | 80434 | 99207
6 | 22:02.58 | 3:51.21 | 99208 | 116553
7 | 25:54.04 | 3:06.67 | 116554 | 130570
8 | 29:00.71 | 3:45.06 | 130571 | 147451
9 | 32:46.02 | 4:52.48 | 147452 | 169399
10 | 37:38.50 | 3:54.15 | 169400 | 186964
11 | 41:32.65 | 3:24.45 | 186965 | 202309
12 | 44:57.35 | 6:42.24 | 202310 | 232483
13 | 51:39.59 | 7:13.70 | 232484 | 265028
14 | 58:53.54 | 3:40.10 | 265029 | 281538
15 | 62:33.64 | 6:44.03 | 281539 | 311841
16 | 69:17.67 | 7:42.00 | 311842 | 346491


Range status and errors

Selected range

Filename O:\-=Music 4\Blues\Hans Theessink\Hans Theessink Band - Bridges - 2004 [Hybrid SACD]\Y7cO6OQm\Hans Theessink Band - Bridges.wav

Peak level 98.8 %
Range quality 100.0 %
Copy CRC E1AEE09F
Copy OK

No errors occurred

End of status report
ADVERTISING » Download fast « ADVERTISING
Posted By: wersollsschonsein Date: 03 Feb 2022 02:14:20
Cheers from Ireland.
Posted By: rockonchen Date: 03 Feb 2022 05:16:17
Love the music.
But the cue is somewhat incorrect.
can't display the title of each track
Recent searches:
DONATE AVAXHOME:

Donate please!