Loading...
Done
Home > Music
Posted By : tiburon | Date : 17 Sep 2021 15:24:16 | Comments : 3 |

Bob James - Dancing On The Water (2001) {WB 47842}
EAC 0.99pb4 | FLAC tracks level 8 | Cue+Log+M3u | Full Scans 600dpi | 272 MB + 3% Recovery
Genre: Fusion

With just his piano, his tunes, and several duet partners on Dancing on the Water, Bob James's deftness with a hook is unmistakable. His smooth-jazz group Fourplay could easily buff up "Hum Drum" and "Bogie's Boogie" into bona fide hits. On the duets with pianists Joe Sample and Keiko Matsui, James submerges his style to go inside the musical worlds of his partners. He probably wrote "Altair & Vega" and "Duo Oto Subito" for the Japanese dynamo, as it is sometimes difficult to tell on these Asian-flavored tunes where Matsui ends and James begins. Even if Sample and James weren't set on each side of the mix, it's easy to tell who's who, because Sample's rhythmic playing and solo style are unique and dominating. James does his best soloing on the duets with bassist supreme Dave Holland, including a great reading of "Last Night When We Were Young."



Track List

01. Alone Together (With Joe Sample) 7:01
02. The Green Hour 6:05
03. Bogie's Boogie 4:02
04. Altair & Vega (With Keiko Matsui) 8:09
05. Hum Drum 6:37
06. Last Night When We Were Young (With Dave Holland) 7:40
07. Dancing On The Water (With Chuck Loeb) 4:57
08. Modesty 4:36
09. Tapawingo (With Joe Sample) 5:30
10. Autumn Nocturne (With Dave Holland) 5:52
11. Duo Oto Subito (With Keiko Matsui) 5:57

featuring: Joe Sample,Dave Holland,Keiko Matsui and Chuck Loeb

Produced by Bob James

EAC Logfile

Exact Audio Copy V0.99 prebeta 4 from 23. January 2008

EAC extraction logfile from 27. March 2009, 6:43

Bob James / Dancing On The Water

Used drive : PLEXTOR CD-R PREMIUM2 Adapter: 1 ID: 1

Read mode : Secure
Utilize accurate stream : Yes
Defeat audio cache : Yes
Make use of C2 pointers : No

Read offset correction : 30
Overread into Lead-In and Lead-Out : Yes
Fill up missing offset samples with silence : Yes
Delete leading and trailing silent blocks : No
Null samples used in CRC calculations : Yes
Used interface : Installed external ASPI interface
Gap handling : Appended to previous track

Used output format : User Defined Encoder
Selected bitrate : 32 kBit/s
Quality : High
Add ID3 tag : No
Command line compressor : C:\Programmi\FLAC\flac.exe
Additional command line options : -8 -V -T "ARTIST=%a" -T "TITLE=%t" -T "ALBUM=%g" -T "DATE=%y" -T "TRACKNUMBER=%n" -T "GENRE=%m" -T "COMMENT=EAC FLAC -8" %s


TOC of the extracted CD

Track | Start | Length | Start sector | End sector
---------------------------------------------------------
1 | 0:00.32 | 7:04.20 | 32 | 31851
2 | 7:04.52 | 6:06.55 | 31852 | 59356
3 | 13:11.32 | 4:03.08 | 59357 | 77589
4 | 17:14.40 | 8:11.17 | 77590 | 114431
5 | 25:25.57 | 6:38.40 | 114432 | 144321
6 | 32:04.22 | 7:41.58 | 144322 | 178954
7 | 39:46.05 | 4:57.42 | 178955 | 201271
8 | 44:43.47 | 4:37.00 | 201272 | 222046
9 | 49:20.47 | 5:31.28 | 222047 | 246899
10 | 54:52.00 | 5:53.52 | 246900 | 273426
11 | 60:45.52 | 5:57.43 | 273427 | 300244


Track 1

Filename D:\My Rip\01 - Alone Together.wav

Pre-gap length 0:00:02.42

Peak level 98.7 %
Track quality 100.0 %
Test CRC 701C8C4D
Copy CRC 701C8C4D
Accurately ripped (confidence 8) [C07938A9]
Copy OK

Track 2

Filename D:\My Rip\02 - The Green Hour.wav

Pre-gap length 0:00:00.76

Peak level 99.8 %
Track quality 100.0 %
Test CRC DACFEE23
Copy CRC DACFEE23
Accurately ripped (confidence 7) [76D706B0]
Copy OK

Track 3

Filename D:\My Rip\03 - Bogie's Boogie.wav

Pre-gap length 0:00:01.46

Peak level 95.3 %
Track quality 100.0 %
Test CRC E893EFE0
Copy CRC E893EFE0
Accurately ripped (confidence 7) [86391619]
Copy OK

Track 4

Filename D:\My Rip\04 - Altair And Vega.wav

Pre-gap length 0:00:00.60

Peak level 98.7 %
Track quality 100.0 %
Test CRC 551C54F2
Copy CRC 551C54F2
Accurately ripped (confidence 7) [524B9CFF]
Copy OK

Track 5

Filename D:\My Rip\05 - Hum Drum.wav

Pre-gap length 0:00:02.06

Peak level 98.7 %
Track quality 100.0 %
Test CRC 3B70C37B
Copy CRC 3B70C37B
Accurately ripped (confidence 7) [1778A63B]
Copy OK

Track 6

Filename D:\My Rip\06 - Last Night When We Were Young.wav

Pre-gap length 0:00:00.80

Peak level 99.8 %
Track quality 100.0 %
Test CRC ED45E2E1
Copy CRC ED45E2E1
Accurately ripped (confidence 7) [27304F7D]
Copy OK

Track 7

Filename D:\My Rip\07 - Dancing On The Water.wav

Pre-gap length 0:00:01.46

Peak level 98.5 %
Track quality 100.0 %
Test CRC E4077ADD
Copy CRC E4077ADD
Accurately ripped (confidence 6) [172601BA]
Copy OK

Track 8

Filename D:\My Rip\08 - Modesty.wav

Pre-gap length 0:00:01.53

Peak level 99.8 %
Track quality 100.0 %
Test CRC 46DE9422
Copy CRC 46DE9422
Accurately ripped (confidence 7) [98011314]
Copy OK

Track 9

Filename D:\My Rip\09 - Tapawingo.wav

Pre-gap length 0:00:00.62

Peak level 98.2 %
Track quality 99.9 %
Test CRC 80CEAA86
Copy CRC 80CEAA86
Accurately ripped (confidence 7) [C7A4CEF2]
Copy OK

Track 10

Filename D:\My Rip\10 - Autumn Nocturne.wav

Pre-gap length 0:00:00.60

Peak level 99.8 %
Track quality 100.0 %
Test CRC 6E76A8E7
Copy CRC 6E76A8E7
Accurately ripped (confidence 7) [D90964B3]
Copy OK

Track 11

Filename D:\My Rip\11 - Duo Oto Subito.wav

Pre-gap length 0:00:01.13

Peak level 98.7 %
Track quality 100.0 %
Test CRC 170C1DAD
Copy CRC 170C1DAD
Accurately ripped (confidence 7) [ACD87B6F]
Copy OK


All tracks accurately ripped

No errors occurred

End of status report






The Files Are Interchangeable


ADVERTISING » High Speed Download « ADVERTISING




Posted By: FG180 Date: 18 Sep 2021 00:29:57
Thank you very much.
Posted By: diluiz Date: 18 Sep 2021 01:22:06
Thanks for share Bob James.
Posted By: dannyjl Date: 18 Sep 2021 01:47:15
Thanks a lot - didn't know this existed.
Recent searches: