Loading...
Done
Home > Music
Barbra Streisand - Best Ballads (1988)
Posted By : SyraNNo | Date : 26 Feb 2022 10:17:30 | Comments : 1

Barbra Streisand - Best Ballads (1988)
Vocal, Pop, Evergreen | FLAC 391 MB (Cue, Log) | MP3 320 Kbps (160 MB)
Label: Sony Music | Release Date 1988

Barbra Streisand's status as one of the most successful singers of her generation was remarkable not only because her popularity was achieved in the face of a dominant musical trend -- rock & roll -- which she did not follow, but also because she used her vocal skills as a mere stepping stone to other careers, as a stage and film actress and as a film director. Born in 1942 and raised in Brooklyn, NY, she struggled briefly as an actress and nightclub singer in New York during the early '60s before landing her first part in a Broadway show, I Can Get It for You Wholesale, in 1962. The cast album for that show, as well as a subsequent appearance on a studio revival of Pins and Needles, were her first recordings. Signed to Columbia Records, she released her first album, The Barbra Streisand Album, in 1963. It became a Top Ten, gold-selling record, thus paving the way for Streisand's status as one of the best-selling recording artists of the early '60s.

Log
Exact Audio Copy V0.99 prebeta 5 from 4. May 2009

EAC extraction logfile from 25. February 2010, 20:45

Barbra Streisand / Best Ballads

Used drive : PIONEER DVD-RW DVR-216D Adapter: 3 ID: 1

Read mode : Secure
Utilize accurate stream : Yes
Defeat audio cache : Yes
Make use of C2 pointers : Yes

Combined read/write offset correction : 0
Overread into Lead-In and Lead-Out : No
Fill up missing offset samples with silence : Yes
Delete leading and trailing silent blocks : No
Null samples used in CRC calculations : No
Used interface : Native Win32 interface for Win NT & 2000

Used output format : User Defined Encoder
Selected bitrate : 1024 kBit/s
Quality : High
Add ID3 tag : No
Command line compressor : E:\Program Files\Exact Audio Copy\FLAC\FLAC.EXE
Additional command line options : -6 -V -T "ARTIST=%a" -T "TITLE=%t" -T "ALBUM=%g" -T "DATE=%y" -T "TRACKNUMBER=%n" -T "GENRE=%m" -T "COMMENT=%e" %s -o %d


TOC of the extracted CD

Track | Start | Length | Start sector | End sector
---------------------------------------------------------
1 | 0:00.00 | 3:55.47 | 0 | 17671
2 | 3:55.47 | 4:54.00 | 17672 | 39721
3 | 8:49.47 | 3:56.45 | 39722 | 57466
4 | 12:46.17 | 4:25.28 | 57467 | 77369
5 | 17:11.45 | 3:10.50 | 77370 | 91669
6 | 20:22.20 | 3:25.72 | 91670 | 107116
7 | 23:48.17 | 2:50.68 | 107117 | 119934
8 | 26:39.10 | 3:28.65 | 119935 | 135599
9 | 30:08.00 | 5:30.27 | 135600 | 160376
10 | 35:38.27 | 4:14.70 | 160377 | 179496
11 | 39:53.22 | 5:32.55 | 179497 | 204451
12 | 45:26.02 | 3:34.55 | 204452 | 220556
13 | 49:00.57 | 4:47.40 | 220557 | 242121
14 | 53:48.22 | 3:55.65 | 242122 | 259811
15 | 57:44.12 | 4:26.55 | 259812 | 279816
16 | 62:10.67 | 2:52.48 | 279817 | 292764
17 | 65:03.40 | 4:06.25 | 292765 | 311239
18 | 69:09.65 | 4:18.10 | 311240 | 330599


Range status and errors

Selected range

Filename E:\Music Avax\Barbra Streisand - Best Ballads\Barbra Streisand - Best Ballads.wav

Peak level 86.0 %
Range quality 99.9 %
Test CRC F14FF412
Copy CRC F14FF412
Copy OK

No errors occurred

End of status report

01. Woman In Love (3:56)
02. Tell Him (4:54)
03. Memory (3:57)
04. Guilty (4:25)
05. Evergreen (3:11)
06. You Don't Bring Me Flowers (3:26)
07. The Shadow Of Your Smile (2:51)
08. I've Got A Crush On You (3:29)
09. I Believe (You'll Never Walk Alone) (5:30)
10. Comin' In And Out Of Your Life (4:15)
11. We're Not Makin' Love Anymore (5:33)
12. The Way We Were (3:35)
13. New York State Of Mine (4:48)
14. A Man I Loved (3:56)
15. Higher Ground (4:27)
16. Superman (2:53)
17. What Kind Of Fool (4:06)
18. Kiss Me In The Rain (4:18)

ADVERTISING » Download fast « ADVERTISING
Posted By: movie Date: 26 Feb 2022 14:34:11
i love this voice!
thank you very much!
Recent searches:
DONATE AVAXHOME:

Donate please!