Loading...
Done
Home > Music
Alexander O'Neal - Love Makes No Sense (1993)
Posted By : MeisterLee | Date : 29 Dec 2021 20:59:52 | Comments : 0

Alexander O'Neal - Love Makes No Sense (1993)
EAC AccurateRip | FLAC | LOG, no CUE | Scans | 11 Tracks | 56:09 min
403 MB | Label:Tabu | CD Nr. 549-502-2
R&B

This Minneapolis soul man cut his teeth in the Time but was bounced (for looking "too black") before they signed with Warner Brothers. His tough, ballsy voice has the same grain and range as Otis Redding's. Like that master, Alexander O'Neal is comfortable with pumping dancefloor burners and slinky couch-cuddlers. He's certainly the best singer Jimmy Jam and Terry Lewis have ever produced, and the strength of his material and his robust voice can be heard on releases including 1986's Hearsay, 1991's All True Man, and 1997's Lovers Again. He relocated to Britain, where his efforts had always been better received, and began to set up permanent shop there. His first British-only release, 2002's Saga of a Married Man, showed him developing into a smoother and more mature singer compared to his previous output.
















Alexander O'Neal - Love Makes No Sense

01. In The Middle 04:37
02. If U Let It 05:14
03. Aphrodisia 05:18
04. Love Makes No Sense 06:58
05. Home Is Where The Heart Is 06:14
06. Change Of Heart 04:44
07. Lady 05:35
08. All That Matters To Me 04:30
09. Since I've Been Loving You 04:00
10. Your Precious Love 03:39
11. What A Wonderful World 05:13



log
Exact Audio Copy V0.99 prebeta 5 from 4. May 2009

EAC Auslese-Logdatei vom 29. Dezember 2009, 17:41

Alexander O'Neal / Love Makes No Sense

Benutztes Laufwerk : TSSTcorpDVD-ROM SH-D162C Adapter: 4 ID: 1




TOC der ausgelesenen CD

Track | Start | Länge | Startsektor | Endsektor
-------------------------------------------------------
1 | 0:00.33 | 4:37.57 | 33 | 20864
2 | 4:38.15 | 5:14.48 | 20865 | 44462
3 | 9:52.63 | 5:18.30 | 44463 | 68342
4 | 15:11.18 | 6:58.67 | 68343 | 99759
5 | 22:10.10 | 6:14.65 | 99760 | 127874
6 | 28:25.00 | 4:44.45 | 127875 | 149219
7 | 33:09.45 | 5:35.28 | 149220 | 174372
8 | 38:44.73 | 4:30.12 | 174373 | 194634
9 | 43:15.10 | 4:00.73 | 194635 | 212707
10 | 47:16.08 | 3:39.52 | 212708 | 229184
11 | 50:55.60 | 5:13.60 | 229185 | 252719


Track 1

Alexander O'Neal - Love Makes No Sense [1993]\01. In The Middle.wav

Pausenlänge 0:00:02.33

Spitzenpegel 100.0 %
Test CRC AC71AF12
Kopie CRC AC71AF12
Akkurat gelesen (Zuversicht 11) [10D3CF59]
Kopie OK

Track 2

Alexander O'Neal - Love Makes No Sense [1993]\02. If U Let It.wav

Pausenlänge 0:00:01.02

Spitzenpegel 97.5 %
Test CRC 187B6CB1
Kopie CRC 187B6CB1
Akkurat gelesen (Zuversicht 11) [F21BB4D8]
Kopie OK

Track 3

Alexander O'Neal - Love Makes No Sense [1993]\03. Aphrodisia.wav

Pausenlänge 0:00:00.30

Spitzenpegel 100.0 %
Test CRC 61D5F518
Kopie CRC 61D5F518
Akkurat gelesen (Zuversicht 11) [D416DDC4]
Kopie OK

Track 4

Alexander O'Neal - Love Makes No Sense [1993]\04. Love Makes No Sense.wav

Spitzenpegel 100.0 %
Test CRC A8087E6D
Kopie CRC A8087E6D
Akkurat gelesen (Zuversicht 11) [9C09DB0E]
Kopie OK

Track 5

Alexander O'Neal - Love Makes No Sense [1993]\05. Home Is Where The Heart Is.wav

Pausenlänge 0:00:00.70

Spitzenpegel 100.0 %
Test CRC 26CDBBF4
Kopie CRC 26CDBBF4
Akkurat gelesen (Zuversicht 11) [A67F97CF]
Kopie OK

Track 6

Alexander O'Neal - Love Makes No Sense [1993]\06. Change Of Heart.wav

Spitzenpegel 100.0 %
Test CRC B8A6D13C
Kopie CRC B8A6D13C
Akkurat gelesen (Zuversicht 11) [66AFE655]
Kopie OK

Track 7

Alexander O'Neal - Love Makes No Sense [1993]\07. Lady.wav

Pausenlänge 0:00:00.30

Spitzenpegel 100.0 %
Test CRC 57B97ED2
Kopie CRC 57B97ED2
Akkurat gelesen (Zuversicht 11) [364AFA30]
Kopie OK

Track 8

Alexander O'Neal - Love Makes No Sense [1993]\08. All That Matters To Me.wav

Pausenlänge 0:00:00.45

Spitzenpegel 100.0 %
Test CRC 356CAD9F
Kopie CRC 356CAD9F
Akkurat gelesen (Zuversicht 11) [23CA93BE]
Kopie OK

Track 9

Alexander O'Neal - Love Makes No Sense [1993]\09. Since I've Been Loving You.wav

Pausenlänge 0:00:00.60

Spitzenpegel 100.0 %
Test CRC 71CE7ADB
Kopie CRC 71CE7ADB
Akkurat gelesen (Zuversicht 11) [7987C35D]
Kopie OK

Track 10

Alexander O'Neal - Love Makes No Sense [1993]\10. Your Precious Love.wav

Spitzenpegel 100.0 %
Test CRC A3E15898
Kopie CRC A3E15898
Akkurat gelesen (Zuversicht 11) [C271A282]
Kopie OK

Track 11

Alexander O'Neal - Love Makes No Sense [1993]\11. What A Wonderful World.wav

Pausenlänge 0:00:01.02

Spitzenpegel 100.0 %
Test CRC ADFE6E3F
Kopie CRC ADFE6E3F
Akkurat gelesen (Zuversicht 11) [C646505B]
Kopie OK


Alle Tracks wurden akkurat gelesen

Keine Fehler aufgetreten

Ende des Statusreports




Rapidsharee


http://rapidshare.com/files/327568995/AlexO_Neal_No_Sens.part1.rar
http://rapidshare.com/files/327573555/AlexO_Neal_No_Sens.part2.rar
http://rapidshare.com/files/327578054/AlexO_Neal_No_Sens.part3.rar
http://rapidshare.com/files/327582670/AlexO_Neal_No_Sens.part4.rar
http://rapidshare.com/files/327564619/AlexO_Neal_No_Sens.part5.rar
ADVERTISING » Download fast « ADVERTISING
No comments for the news
DONATE AVAXHOME:

Donate please!